<?xml version="1.0" standalone="no"?>
<!DOCTYPE svg PUBLIC "-//W3C//DTD SVG 1.1//EN" "http://www.w3.org/Graphics/SVG/1.1/DTD/svg11.dtd" >
<svg xmlns="http://www.w3.org/2000/svg">
<metadata>Generated by IcoMoon</metadata>
<defs>
<font id="Coop-Icons" horiz-adv-x="1024">
<font-face units-per-em="1024" ascent="960" descent="-64" />
<missing-glyph horiz-adv-x="1024" />
<glyph unicode="&#x20;" horiz-adv-x="512" d="" />
<glyph unicode="&#xe900;" glyph-name="brightness-filled" d="M512.020-34.152l-142.936 140.8h-198.399v198.399l-140.8 142.933 140.8 142.936v198.399h198.399l142.936 140.8 142.933-140.8h198.399v-198.399l140.8-142.936-140.8-142.933v-198.399h-198.399l-142.933-140.8z" />
<glyph unicode="&#xe901;" glyph-name="grocery-filled" d="M682.689 21.317c-71.109 0-131.555 24.889-181.333 74.667s-74.667 110.22-74.667 181.333c0 71.112 24.889 131.555 74.667 181.333s110.223 74.667 181.333 74.667c71.112 0 131.558-24.889 181.336-74.667s74.667-110.22 74.667-181.333c0-71.112-24.889-131.555-74.667-181.333s-110.223-74.667-181.336-74.667zM170.691 106.651c-23.467 0-43.556 8.356-60.267 25.065-16.711 16.712-25.067 36.8-25.067 60.267v324.269c0 5.688 0.533 11.378 1.6 17.066s2.666 11.378 4.8 17.066l85.333 196.267h-6.4c-12.089 0-22.222 4.089-30.4 12.267s-12.267 18.311-12.267 30.4v42.667c0 12.089 4.089 22.222 12.267 30.4s18.311 12.267 30.4 12.267h298.667c12.089 0 22.221-4.089 30.398-12.267 8.18-8.178 12.268-18.311 12.268-30.4v-42.667c0-12.089-4.087-22.222-12.268-30.4-8.177-8.178-18.309-12.267-30.398-12.267h-6.401l70.401-162.133c-13.511-7.112-26.311-14.579-38.4-22.399-12.089-7.823-23.467-16.712-34.134-26.668l-89.6 211.2h-102.4l-98.133-230.399v-324.269h181.334c3.555-14.933 8.356-29.687 14.4-44.266s13.332-28.265 21.864-41.065h-217.599zM682.689 575.982c-29.866 0-55.109 10.313-75.732 30.934-20.623 20.623-30.934 45.866-30.934 75.734s10.31 55.111 30.934 75.733c20.623 20.622 45.866 30.934 75.732 30.934v-213.334c0 29.869 10.313 55.112 30.934 75.735 20.623 20.621 45.866 30.932 75.735 30.932 29.866 0 55.112-10.311 75.732-30.932 20.623-20.623 30.934-45.866 30.934-75.735h-213.334z" />
<glyph unicode="&#xe902;" glyph-name="select" d="M331.789 723.076c-15.438 0-28.562-5.745-39.367-17.234-10.809-11.49-16.212-25.442-16.212-41.855s5.403-30.364 16.212-41.855c10.806-11.49 23.929-17.233 39.367-17.233s28.562 5.742 39.367 17.233c10.809 11.49 16.212 25.441 16.212 41.855s-5.403 30.366-16.212 41.855c-10.806 11.49-23.929 17.234-39.367 17.234zM331.789 329.149c-15.438 0-28.562-5.745-39.367-17.236-10.809-11.49-16.212-25.441-16.212-41.855s5.403-30.364 16.212-41.855c10.806-11.49 23.929-17.236 39.367-17.236s28.562 5.745 39.367 17.236c10.809 11.49 16.212 25.441 16.212 41.855s-5.403 30.364-16.212 41.855c-10.806 11.49-23.929 17.236-39.367 17.236zM202.105 841.254h592.842c10.499 0 19.297-3.775 26.4-11.325 7.101-7.55 10.652-16.906 10.652-28.067v-275.749c0-11.162-3.552-20.518-10.652-28.068-7.103-7.551-15.902-11.326-26.4-11.326h-592.842c-10.498 0-19.298 3.775-26.4 11.326s-10.653 16.907-10.653 28.068v275.749c0 11.161 3.551 20.517 10.653 28.067s15.902 11.325 26.4 11.325zM239.158 762.469v-196.965h518.737v196.965h-518.737zM202.105 447.326h592.842c10.499 0 19.297-3.775 26.4-11.326 7.101-7.551 10.652-16.907 10.652-28.066v-275.75c0-11.162-3.552-20.518-10.652-28.068-7.103-7.551-15.902-11.326-26.4-11.326h-592.842c-10.498 0-19.298 3.775-26.4 11.326s-10.653 16.907-10.653 28.068v275.75c0 11.159 3.551 20.515 10.653 28.066s15.902 11.326 26.4 11.326zM239.158 368.54v-196.964h518.737v196.964h-518.737z" />
<glyph unicode="&#xe903;" glyph-name="pin-filled" horiz-adv-x="778" d="M387.589-64c0 0-387.589 422.352-387.589 636.411 0 214.060 173.529 387.589 387.589 387.589s387.588-173.529 387.588-387.589c0-214.059-387.588-636.411-387.588-636.411zM384 448c76.347 0 138.24 61.893 138.24 138.24s-61.893 138.24-138.24 138.24c-76.347 0-138.24-61.893-138.24-138.24s61.893-138.24 138.24-138.24z" />
<glyph unicode="&#xe904;" glyph-name="steppers-filled" d="M213.343 320c-35.556 0-65.778 12.443-90.667 37.332s-37.333 55.112-37.333 90.668c0 35.556 12.445 65.779 37.333 90.668s55.111 37.332 90.667 37.332c35.556 0 65.778-12.443 90.668-37.332 24.886-24.889 37.332-55.112 37.332-90.668s-12.446-65.779-37.332-90.668c-24.89-24.889-55.113-37.332-90.668-37.332zM512.009 320c-35.556 0-65.776 12.443-90.665 37.332s-37.335 55.112-37.335 90.668c0 35.556 12.446 65.779 37.335 90.668s55.109 37.332 90.665 37.332c35.556 0 65.779-12.443 90.668-37.332s37.332-55.112 37.332-90.668c0-35.556-12.443-65.779-37.332-90.668s-55.112-37.332-90.668-37.332zM810.677 320c-35.556 0-65.779 12.443-90.668 37.332s-37.332 55.112-37.332 90.668c0 35.556 12.443 65.779 37.332 90.668s55.112 37.332 90.668 37.332c35.553 0 65.776-12.443 90.665-37.332s37.335-55.112 37.335-90.668c0-35.556-12.446-65.779-37.335-90.668s-55.112-37.332-90.665-37.332z" />
<glyph unicode="&#xe905;" glyph-name="arrow-forward" d="M690.133 405.333h-519.467v85.333h519.467l-238.933 238.933 60.8 59.733 341.333-341.333-341.333-341.333-60.8 59.733 238.933 238.933z" />
<glyph unicode="&#xe906;" glyph-name="bakery-dining" horiz-adv-x="983" d="M823.296 245.248c11.604-6.144 21.844-4.78 30.72 4.096s10.24 19.116 4.096 30.72l-59.392 110.592-43.008-110.592 67.584-34.816zM618.496 284.16h49.152l98.304 243.712c2.048 5.46 1.536 10.068-1.536 13.824s-6.656 6.656-10.752 8.704l-81.92 32.768c-6.144 2.048-12.116 1.365-17.92-2.048s-9.388-8.192-10.752-14.336l-24.576-282.624zM315.392 284.16h49.152l-24.576 282.624c-1.365 7.509-4.949 12.629-10.752 15.36s-11.776 3.072-17.92 1.024l-81.92-32.768c-5.461-2.048-9.387-4.948-11.776-8.704s-2.56-8.364-0.512-13.824l98.304-243.712zM159.744 245.248l67.584 34.816-43.008 110.592-59.392-110.592c-6.144-11.604-4.779-21.844 4.096-30.72s19.115-10.24 30.72-4.096zM446.464 284.16h90.112l30.72 346.112c1.364 6.144-0.172 11.435-4.608 15.872s-9.728 6.656-15.872 6.656h-110.592c-5.46 0-10.412-2.219-14.848-6.656s-6.316-9.728-5.632-15.872l30.72-346.112zM141.312 161.28c-28.672 0-52.565 10.752-71.68 32.256s-28.672 46.932-28.672 76.288c0 8.192 1.195 16.212 3.584 24.064s5.291 15.532 8.704 23.040l90.112 172.032c-9.557 27.308-9.216 54.272 1.024 80.896s28.331 45.397 54.272 56.32l81.92 32.768c9.557 3.413 19.115 5.803 28.672 7.168s19.115 1.024 28.672-1.024c9.557 19.797 22.869 36.352 39.936 49.664s36.524 19.968 58.368 19.968h110.592c21.844 0 41.3-6.656 58.368-19.968s30.38-29.867 39.936-49.664c9.556 1.365 19.116 1.536 28.672 0.512s19.116-3.243 28.672-6.656l81.92-32.768c27.308-10.923 46.42-29.696 57.344-56.32s10.24-52.908-2.048-78.848l90.112-172.032c4.096-7.508 7.168-15.36 9.216-23.552s3.072-16.724 3.072-25.6c0-30.72-10.412-56.492-31.232-77.312s-46.592-31.232-77.312-31.232c-7.508 0-15.020 0.852-22.528 2.56s-15.020 4.268-22.528 7.68l-63.488 30.72h-468.992l-57.344-30.72c-8.875-4.78-18.261-7.68-28.16-8.704s-19.627-1.536-29.184-1.536z" />
<glyph unicode="&#xe907;" glyph-name="breakfast-dining" horiz-adv-x="983" d="M245.76 79.36c-22.528 0-41.813 8.020-57.856 24.064s-24.064 35.328-24.064 57.856v350.208c-25.259 15.020-45.227 34.988-59.904 59.904s-22.016 52.053-22.016 81.408c0 45.056 16.043 83.627 48.128 115.712s70.656 48.128 115.712 48.128h491.52c45.056 0 83.628-16.043 115.712-48.128s48.128-70.656 48.128-115.712c0-29.355-7.34-56.491-22.016-81.408s-34.644-44.884-59.904-59.904v-350.208c0-22.528-8.020-41.812-24.064-57.856s-35.328-24.064-57.856-24.064h-491.52zM245.76 161.28h491.52v397.312l40.96 24.576c12.288 7.509 22.188 17.408 29.696 29.696s11.264 25.6 11.264 39.936c0 22.528-8.020 41.813-24.064 57.856s-35.328 24.064-57.856 24.064h-491.52c-22.528 0-41.813-8.021-57.856-24.064s-24.064-35.328-24.064-57.856c0-15.019 3.584-28.843 10.752-41.472s17.237-22.699 30.208-30.208l40.96-22.528v-397.312zM462.848 255.488c8.192-7.508 17.92-11.264 29.184-11.264s20.652 3.756 28.16 11.264l122.88 122.88c8.192 8.192 12.288 17.92 12.288 29.184s-4.096 20.652-12.288 28.16l-122.88 122.88c-7.508 8.192-16.896 12.288-28.16 12.288s-20.992-4.096-29.184-12.288l-122.88-122.88c-7.509-7.508-11.264-16.896-11.264-28.16s3.755-20.992 11.264-29.184l122.88-122.88zM491.52 341.504l-65.536 65.536 65.536 65.536 65.536-65.536-65.536-65.536z" />
<glyph unicode="&#xe908;" glyph-name="brightness" d="M512.020-34.152l-142.936 140.8h-198.399v198.399l-140.8 142.933 140.8 142.936v198.399h198.399l142.936 140.8 142.933-140.8h198.399v-198.399l140.8-142.936-140.8-142.933v-198.399h-198.399l-142.933-140.8zM512.020 85.314l106.666 106.666h149.334v149.334l106.666 106.666-106.666 106.669v149.333h-149.334l-106.666 106.667-106.669-106.667h-149.333v-149.333l-106.667-106.669 106.667-106.666v-149.334h149.333l106.669-106.666z" />
<glyph unicode="&#xe909;" glyph-name="arrow-outward" horiz-adv-x="1012" d="M290.133 174.933l-59.733 59.733 409.6 409.6h-366.933v85.333h512v-512h-85.333v366.933l-409.6-409.6z" />
<glyph unicode="&#xe90a;" glyph-name="close" d="M241.708 734.292l-26.028-26.010 260.264-260.282-260.264-260.282 52.038-52.038 260.282 260.264 260.282-260.264 52.038 52.038-260.264 260.282 260.264 260.282-52.038 52.038-260.282-260.264-260.282 260.264-26.010-26.028z" />
<glyph unicode="&#xe90b;" glyph-name="mail" d="M170.667 106.667q-35.2 0-60.267 25.067t-25.067 60.267v512q0 35.2 25.067 60.267t60.267 25.067h682.667q35.2 0 60.267-25.067t25.067-60.267v-512q0-35.2-25.067-60.267t-60.267-25.067h-682.667zM512 405.333l-341.333 213.333v-426.667h682.667v426.667l-341.333-213.333zM512 490.667l341.333 213.333h-682.667l341.333-213.333zM170.667 618.667v0z" />
<glyph unicode="&#xe90c;" glyph-name="link" d="M469.333 234.667h-170.667q-88.533 0-150.933 62.4t-62.4 150.933 62.4 150.933 150.933 62.4h170.667v-85.333h-170.667q-53.333 0-90.667-37.333t-37.333-90.667 37.333-90.667 90.667-37.333h170.667v-85.333zM341.333 405.333v85.333h341.333v-85.333h-341.333zM554.667 234.667v85.333h170.667q53.333 0 90.667 37.333t37.333 90.667-37.333 90.667-90.667 37.333h-170.667v85.333h170.667q88.533 0 150.933-62.4t62.4-150.933-62.4-150.933-150.933-62.4h-170.667z" />
<glyph unicode="&#xe90d;" glyph-name="check" d="M407.467 192l-243.2 243.2 60.8 60.8 182.4-182.4 391.467 391.467 60.8-60.8-452.267-452.267z" />
<glyph unicode="&#xe90e;" glyph-name="clock-filled" d="M652.8 247.473l59.735 59.733-157.867 157.867v196.267h-85.333v-230.4l183.465-183.467zM512 21.34c-59.021 0-114.489 11.199-166.4 33.6-51.911 22.4-97.066 52.799-135.466 91.199s-68.8 83.555-91.2 135.466c-22.4 51.911-33.6 107.379-33.6 166.4 0 59.023 11.2 114.489 33.6 166.4s52.8 97.068 91.2 135.468c38.4 38.399 83.555 68.799 135.466 91.199s107.379 33.6 166.4 33.6c59.023 0 114.489-11.2 166.4-33.6s97.068-52.8 135.468-91.199c38.4-38.4 68.8-83.557 91.199-135.468s33.6-107.377 33.6-166.4c0-59.021-11.201-114.489-33.6-166.4s-52.799-97.066-91.199-135.466c-38.4-38.4-83.557-68.8-135.468-91.199-51.911-22.401-107.377-33.6-166.4-33.6z" />
<glyph unicode="&#xe90f;" glyph-name="distance-filled" d="M512 21.34c-75.378 0-136.888 11.91-184.534 35.732-47.644 23.822-71.466 54.579-71.466 92.268 0 24.889 10.311 46.577 30.934 65.067 20.621 18.488 49.066 33.066 85.333 43.732l24.533-81.067c-12.089-3.554-23.111-7.998-33.066-13.332-9.957-5.334-16.712-10.134-20.268-14.399 9.244-11.379 30.579-21.335 64-29.867 33.423-8.533 68.267-12.8 104.534-12.8s71.289 4.267 105.066 12.8c33.779 8.533 55.289 18.488 64.534 29.867-3.556 4.265-10.311 9.065-20.268 14.399-9.955 5.334-20.977 9.778-33.066 13.332l24.533 81.067c36.266-10.666 64.532-25.244 84.8-43.732 20.266-18.49 30.4-40.178 30.4-65.067 0-37.689-23.822-68.446-71.466-92.268-47.646-23.822-109.157-35.732-184.534-35.732zM512 149.34c-7.821 0-14.934 2.311-21.333 6.933-6.401 4.621-11.022 10.843-13.867 18.667-16.356 50.489-36.978 92.799-61.866 126.933-24.889 34.133-49.068 66.843-72.535 98.133-22.755 31.29-42.489 63.644-59.2 97.066-16.71 33.423-25.066 74.668-25.066 123.735 0 71.11 24.533 131.2 73.6 180.266s109.157 73.6 180.267 73.6c71.11 0 131.2-24.533 180.267-73.6s73.6-109.156 73.6-180.266c0-49.066-8.177-90.311-24.533-123.735-16.356-33.421-36.266-65.776-59.733-97.066-22.755-31.29-46.756-64-72-98.133-25.244-34.135-46.045-76.444-62.401-126.933-2.845-7.823-7.466-14.046-13.867-18.667-6.399-4.623-13.511-6.933-21.333-6.933zM512 530.14c24.889 0 46.221 8.888 64 26.667 17.779 17.777 26.667 39.111 26.667 64s-8.888 46.221-26.667 64c-17.779 17.777-39.111 26.667-64 26.667s-46.221-8.89-64-26.667c-17.779-17.779-26.667-39.111-26.667-64s8.888-46.223 26.667-64c17.779-17.779 39.111-26.667 64-26.667z" />
<glyph unicode="&#xe910;" glyph-name="ellipse-filled" d="M512.006 234.691c59.023 0 109.333 20.8 150.934 62.399s62.401 91.912 62.401 150.934-20.8 109.333-62.401 150.934c-41.6 41.599-91.911 62.399-150.934 62.399-59.021 0-109.332-20.8-150.932-62.399s-62.401-91.912-62.401-150.934 20.8-109.333 62.401-150.934c41.6-41.599 91.911-62.399 150.932-62.399zM512.006 21.357c-59.021 0-114.489 11.201-166.4 33.6-51.909 22.4-97.066 52.801-135.466 91.201s-68.8 83.555-91.2 135.466c-22.4 51.911-33.6 107.379-33.6 166.4s11.2 114.489 33.6 166.4c22.4 51.911 52.8 97.066 91.2 135.466s83.557 68.801 135.466 91.201c51.911 22.4 107.379 33.6 166.4 33.6 59.023 0 114.491-11.2 166.4-33.6 51.911-22.4 97.068-52.8 135.468-91.201s68.8-83.555 91.199-135.466c22.401-51.911 33.6-107.379 33.6-166.4s-11.199-114.489-33.6-166.4c-22.4-51.911-52.799-97.066-91.199-135.466s-83.557-68.802-135.468-91.201c-51.909-22.4-107.377-33.6-166.4-33.6zM512.006 106.691c95.29 0 176.001 33.066 242.135 99.2 66.132 66.134 99.2 146.843 99.2 242.133s-33.068 176-99.2 242.133c-66.134 66.134-146.845 99.2-242.135 99.2-95.288 0-176-33.067-242.133-99.2-66.132-66.134-99.199-146.843-99.199-242.133s33.068-176 99.199-242.133c66.134-66.134 146.845-99.2 242.133-99.2z" />
<glyph unicode="&#xe911;" glyph-name="filter-filled" d="M469.333 106.66c-12.089 0-22.223 4.090-30.4 12.268-8.179 8.177-12.268 18.311-12.268 30.4v256l-247.466 315.733c-10.667 14.222-12.267 29.156-4.8 44.801s20.444 23.467 38.933 23.467h597.333c18.49 0 31.467-7.822 38.934-23.467s5.867-30.579-4.8-44.801l-247.467-315.733v-256c0-12.089-4.089-22.223-12.268-30.4-8.177-8.177-18.311-12.268-30.4-12.268h-85.333z" />
<glyph unicode="&#xe912;" glyph-name="home-filled" d="M170.667 64v512l341.333 256 341.333-256v-512h-256v298.667h-170.665v-298.667h-256.001z" />
<glyph unicode="&#xe913;" glyph-name="my-location-filled" d="M469.333-19.201v85.335c-88.889 9.955-165.154 46.756-228.799 110.4s-100.445 139.91-110.401 228.799h-85.333v85.335h85.333c9.956 88.889 46.756 165.154 110.401 228.799s139.91 100.445 228.799 110.401v85.333h85.335v-85.333c88.889-9.956 165.154-46.756 228.799-110.401s100.445-139.91 110.4-228.799h85.335v-85.335h-85.335c-9.955-88.889-46.756-165.154-110.4-228.799s-139.91-100.445-228.799-110.4v-85.335h-85.335zM512 149.333c82.49 0 152.889 29.156 211.201 87.466 58.31 58.312 87.466 128.711 87.466 211.201s-29.156 152.889-87.466 211.201c-58.312 58.31-128.711 87.466-211.201 87.466s-152.889-29.156-211.201-87.466c-58.31-58.312-87.466-128.711-87.466-211.201s29.156-152.889 87.466-211.201c58.312-58.31 128.711-87.466 211.201-87.466zM512 277.333c-46.933 0-87.111 16.712-120.534 50.133-33.421 33.423-50.133 73.601-50.133 120.534s16.712 87.111 50.133 120.534c33.423 33.421 73.601 50.133 120.534 50.133s87.111-16.712 120.534-50.133c33.421-33.423 50.133-73.601 50.133-120.534s-16.712-87.111-50.133-120.534c-33.423-33.421-73.601-50.133-120.534-50.133z" />
<glyph unicode="&#xe914;" glyph-name="psychiatry-filled" d="M469.333 64v340.266c-45.51 0-89.244 8.711-131.199 26.134-41.956 17.421-78.934 42.133-110.935 74.134-31.999 31.999-56.533 68.977-73.6 110.933s-25.6 85.688-25.6 131.2v85.333h85.333c44.801 0 88.178-8.711 130.134-26.133s78.934-42.134 110.933-74.133c22.046-22.044 40.357-46.223 54.935-72.535 14.578-26.309 25.777-54.399 33.6-84.266 3.554 4.979 7.466 9.778 11.733 14.399 4.265 4.623 8.888 9.423 13.867 14.401 31.999 31.999 68.977 56.711 110.933 74.134 41.956 17.421 85.688 26.132 131.2 26.132h85.333v-85.333c0-45.512-8.711-89.244-26.132-131.2-17.423-41.956-42.135-78.934-74.134-110.933-32.001-32.001-68.8-56.534-110.4-73.601-41.6-17.065-85.156-25.6-130.666-25.6v-213.333h-85.335z" />
<glyph unicode="&#xe915;" glyph-name="search-filled" d="M836.267 64l-268.8 268.8c-21.335-17.067-45.868-30.579-73.601-40.534s-57.243-14.934-88.533-14.934c-77.511 0-143.111 26.846-196.8 80.535-53.689 53.687-80.533 119.289-80.533 196.8s26.844 143.111 80.533 196.8c53.689 53.689 119.289 80.533 196.8 80.533s143.112-26.844 196.8-80.533c53.689-53.689 80.535-119.289 80.535-196.8 0-31.29-4.979-60.801-14.934-88.533-9.955-27.734-23.466-52.267-40.534-73.601l268.8-268.8-59.733-59.733z" />
<glyph unicode="&#xe916;" glyph-name="select-filled" d="M320 704c-17.779 0-32.889-6.222-45.333-18.667s-18.667-27.555-18.667-45.333c0-17.779 6.222-32.889 18.667-45.333s27.555-18.667 45.333-18.667c17.779 0 32.889 6.222 45.333 18.667s18.667 27.555 18.667 45.333c0 17.779-6.222 32.889-18.667 45.333s-27.555 18.667-45.333 18.667zM320 277.333c-17.779 0-32.889-6.222-45.333-18.667s-18.667-27.555-18.667-45.333c0-17.777 6.222-32.889 18.667-45.333s27.555-18.667 45.333-18.667c17.779 0 32.889 6.222 45.333 18.667s18.667 27.557 18.667 45.333c0 17.779-6.222 32.889-18.667 45.333s-27.555 18.667-45.333 18.667zM170.667 832h682.666c12.089 0 22.223-4.089 30.4-12.267 8.179-8.178 12.268-18.311 12.268-30.4v-298.666c0-12.089-4.089-22.223-12.268-30.4-8.177-8.179-18.311-12.268-30.4-12.268h-682.666c-12.089 0-22.222 4.089-30.4 12.268-8.178 8.177-12.267 18.311-12.267 30.4v298.666c0 12.089 4.089 22.222 12.267 30.4s18.311 12.267 30.4 12.267zM170.667 405.333h682.666c12.089 0 22.223-4.089 30.4-12.266 8.179-8.179 12.268-18.311 12.268-30.4v-298.667c0-12.089-4.089-22.223-12.268-30.4-8.177-8.177-18.311-12.268-30.4-12.268h-682.666c-12.089 0-22.222 4.090-30.4 12.268s-12.267 18.311-12.267 30.4v298.667c0 12.089 4.089 22.221 12.267 30.4 8.178 8.177 18.311 12.266 30.4 12.266z" />
<glyph unicode="&#xe917;" glyph-name="calendar-month" d="M213.333 21.333c-23.467 0-43.555 8.356-60.266 25.068s-25.067 36.799-25.067 60.266v597.333c0 23.467 8.355 43.555 25.067 60.266s36.8 25.067 60.266 25.067h42.667v85.333h85.333v-85.333h341.333v85.333h85.333v-85.333h42.667c23.467 0 43.554-8.355 60.266-25.067s25.068-36.8 25.068-60.266v-597.333c0-23.467-8.356-43.554-25.068-60.266s-36.799-25.068-60.266-25.068h-597.333zM213.333 106.667h597.333v426.667h-597.333v-426.667zM213.333 618.667h597.333v85.333h-597.333v-85.333zM512 362.667c-12.090 0-22.221 4.089-30.399 12.268s-12.268 18.309-12.268 30.399c0 12.090 4.089 22.221 12.268 30.399s18.309 12.268 30.399 12.268c12.090 0 22.221-4.089 30.399-12.268s12.268-18.309 12.268-30.399c0-12.090-4.089-22.221-12.268-30.399s-18.309-12.268-30.399-12.268zM341.333 362.667c-12.089 0-22.222 4.089-30.4 12.268s-12.267 18.309-12.267 30.399c0 12.090 4.089 22.221 12.267 30.399s18.311 12.268 30.4 12.268c12.090 0 22.221-4.089 30.399-12.268s12.268-18.309 12.268-30.399c0-12.090-4.089-22.221-12.268-30.399s-18.309-12.268-30.399-12.268zM682.667 362.667c-12.090 0-22.221 4.089-30.399 12.268s-12.268 18.309-12.268 30.399c0 12.090 4.089 22.221 12.268 30.399s18.309 12.268 30.399 12.268c12.090 0 22.221-4.089 30.399-12.268s12.268-18.309 12.268-30.399c0-12.090-4.089-22.221-12.268-30.399s-18.309-12.268-30.399-12.268zM512 192c-12.090 0-22.221 4.089-30.399 12.268s-12.268 18.309-12.268 30.399c0 12.090 4.089 22.221 12.268 30.399s18.309 12.268 30.399 12.268c12.090 0 22.221-4.089 30.399-12.268s12.268-18.309 12.268-30.399c0-12.090-4.089-22.221-12.268-30.399s-18.309-12.268-30.399-12.268zM341.333 192c-12.089 0-22.222 4.089-30.4 12.268s-12.267 18.309-12.267 30.399c0 12.090 4.089 22.221 12.267 30.399s18.311 12.268 30.4 12.268c12.090 0 22.221-4.089 30.399-12.268s12.268-18.309 12.268-30.399c0-12.090-4.089-22.221-12.268-30.399s-18.309-12.268-30.399-12.268zM682.667 192c-12.090 0-22.221 4.089-30.399 12.268s-12.268 18.309-12.268 30.399c0 12.090 4.089 22.221 12.268 30.399s18.309 12.268 30.399 12.268c12.090 0 22.221-4.089 30.399-12.268s12.268-18.309 12.268-30.399c0-12.090-4.089-22.221-12.268-30.399s-18.309-12.268-30.399-12.268z" />
<glyph unicode="&#xe918;" glyph-name="local-gas-station" d="M170.667 64v682.667c0 23.467 8.355 43.555 25.067 60.266s36.8 25.067 60.266 25.067h256c23.467 0 43.554-8.355 60.266-25.067s25.068-36.8 25.068-60.266v-298.667h42.667c23.467 0 43.554-8.356 60.266-25.068s25.068-36.799 25.068-60.266v-192c0-12.090 4.089-22.221 12.268-30.399s18.309-12.268 30.399-12.268c12.090 0 22.221 4.089 30.399 12.268s12.268 18.309 12.268 30.399v307.2c-6.4-3.557-13.155-5.868-20.268-6.932-7.11-1.068-14.575-1.601-22.398-1.601-29.867 0-55.112 10.312-75.735 30.932-20.62 20.623-30.932 45.868-30.932 75.735 0 22.757 6.223 43.2 18.668 61.334s28.976 31.111 49.599 38.933l-89.6 89.6 44.8 44.8 157.867-153.6c10.667-10.667 18.668-23.111 23.999-37.333 5.335-14.222 8.001-28.8 8.001-43.733v-405.333c0-29.867-10.312-55.112-30.932-75.735-20.623-20.62-45.868-30.932-75.735-30.932s-55.112 10.312-75.735 30.932c-20.62 20.623-30.932 45.868-30.932 75.735v213.333h-64v-320h-426.667zM256 533.333h256v213.333h-256v-213.333zM768 533.333c12.090 0 22.221 4.089 30.399 12.268s12.268 18.309 12.268 30.399c0 12.090-4.089 22.221-12.268 30.399s-18.309 12.268-30.399 12.268c-12.090 0-22.221-4.089-30.399-12.268s-12.268-18.309-12.268-30.399c0-12.090 4.089-22.221 12.268-30.399s18.309-12.268 30.399-12.268zM256 149.333h256v298.667h-256v-298.667z" />
<glyph unicode="&#xe919;" glyph-name="handshake-filled" horiz-adv-x="1008" d="M508.45 69.818c-11.906 0-21.886 4.026-29.94 12.080s-12.082 18.035-12.082 29.94c0 4.903 1.050 9.981 3.153 15.233 2.101 5.252 5.252 9.979 9.453 14.182l194.344 194.343-30.466 30.464-193.292-194.343c-4.202-4.202-8.754-7.353-13.656-9.455-4.903-2.101-10.155-3.151-15.757-3.151-11.906 0-21.886 4.028-29.94 12.082-8.054 8.052-12.082 18.033-12.082 29.938 0 7.004 1.050 12.781 3.153 17.334 2.101 4.552 4.901 8.58 8.403 12.082l194.344 194.343-29.415 29.414-194.343-193.292c-4.202-4.202-8.755-7.353-13.656-9.455-4.903-2.101-10.505-3.151-16.809-3.151-11.205 0-21.009 4.202-29.414 12.606s-12.606 18.209-12.606 29.415c0 5.603 1.050 10.854 3.151 15.757 2.102 4.901 5.253 9.455 9.455 13.656l194.344 194.343-30.466 29.415-193.292-194.344c-3.502-3.502-7.705-6.302-12.606-8.405-4.903-2.101-10.856-3.151-17.859-3.151-11.905 0-21.886 4.028-29.94 12.082s-12.080 18.033-12.080 29.94c0 5.603 1.050 10.854 3.151 15.757s5.253 9.455 9.455 13.656l234.263 234.263 157.575-158.627c7.703-7.703 16.808-13.832 27.313-18.384s21.011-6.828 31.516-6.828c22.41 0 42.020 7.879 58.827 23.636 16.809 15.759 25.212 35.893 25.212 60.405 0 9.804-1.75 19.959-5.252 30.464s-9.804 20.309-18.908 29.414l-188.041 188.041c11.905 11.205 25.212 19.785 39.919 25.738s29.414 8.929 44.12 8.929c18.209 0 35.018-2.976 50.424-8.929 15.408-5.953 29.415-15.232 42.021-27.839l177.535-178.586c12.606-12.606 21.886-26.613 27.837-42.020 5.953-15.408 8.931-33.266 8.931-53.577 0-14.006-3.153-28.188-9.455-42.546-6.304-14.356-15.408-27.488-27.313-39.393l-349.819-350.869c-5.603-5.603-10.505-9.104-14.707-10.505s-9.104-2.101-14.707-2.101zM148.126 405.98l-27.313 27.313c-11.906 11.205-21.010 24.511-27.313 39.919s-9.455 31.514-9.455 48.323c0 18.209 3.502 35.016 10.505 50.424s15.757 28.363 26.262 38.869l177.536 178.586c11.205 11.205 24.512 20.135 39.919 26.788 15.408 6.653 30.466 9.98 45.172 9.98 18.908 0 35.717-2.626 50.424-7.879s29.063-14.882 43.070-28.889l215.353-215.353c4.203-4.202 7.354-8.754 9.455-13.656s3.151-10.155 3.151-15.757c0-11.207-4.202-21.011-12.606-29.415s-18.209-12.606-29.414-12.606c-6.304 0-11.556 0.877-15.757 2.627-4.203 1.75-8.755 5.078-13.656 9.979l-189.091 186.99-296.243-296.242z" />
<glyph unicode="&#xe91a;" glyph-name="events-filled" horiz-adv-x="1008" d="M294.141 69.818v84.041h168.082v130.262c-34.316 7.703-64.957 22.236-91.92 43.596s-46.747 48.148-59.353 80.364c-52.527 6.302-96.472 29.238-131.838 68.808-35.367 39.568-53.051 85.966-53.051 139.191v42.021c0 23.11 8.229 42.895 24.687 59.353s36.243 24.686 59.354 24.686h84.039v84.041h420.203v-84.041h84.039c23.111 0 42.896-8.228 59.355-24.686 16.457-16.458 24.686-36.243 24.686-59.353v-42.021c0-53.225-17.684-99.623-53.051-139.191-35.367-39.57-79.312-62.506-131.838-68.808-12.606-32.216-32.389-59.004-59.353-80.364-26.962-21.36-57.603-35.893-91.92-43.596v-130.262h168.082v-84.041h-420.203zM294.141 498.424v159.677h-84.039v-42.021c0-26.612 7.703-50.6 23.111-71.959s35.716-36.592 60.928-45.697zM714.344 498.424c25.212 9.104 45.521 24.337 60.93 45.697 15.407 21.36 23.11 45.348 23.11 71.959v42.021h-84.039v-159.677z" />
<glyph unicode="&#xe91b;" glyph-name="group-filled" d="M47.030 111.838v117.656c0 23.813 6.128 45.697 18.384 65.657s28.539 35.191 48.848 45.697c43.421 21.71 87.541 37.994 132.363 48.848 44.822 10.856 90.343 16.283 136.566 16.283s91.744-5.427 136.566-16.283c44.822-10.854 88.942-27.138 132.363-48.848 20.311-10.505 36.594-25.737 48.849-45.697s18.384-41.844 18.384-65.657v-117.656h-672.323zM803.393 111.838v126.061c0 30.815-8.578 60.404-25.737 88.767-17.158 28.365-41.495 52.7-73.010 73.011 35.716-4.203 69.333-11.38 100.848-21.535s60.928-22.587 88.242-37.294c25.212-14.007 44.471-29.589 57.777-46.747s19.96-35.893 19.96-56.202v-126.061h-168.082zM383.192 448c-46.223 0-85.791 16.457-118.706 49.374-32.917 32.915-49.374 72.484-49.374 118.706s16.457 85.791 49.374 118.706c32.915 32.917 72.484 49.374 118.706 49.374s85.791-16.457 118.708-49.374c32.915-32.915 49.372-72.484 49.372-118.706s-16.457-85.791-49.372-118.706c-32.917-32.917-72.485-49.374-118.708-49.374zM803.393 616.080c0-46.223-16.457-85.791-49.372-118.706-32.917-32.917-72.485-49.374-118.708-49.374-7.703 0-17.509 0.875-29.414 2.625-11.906 1.752-21.71 3.677-29.415 5.778 18.91 22.412 33.441 47.273 43.596 74.586s15.233 55.678 15.233 85.091-5.077 57.778-15.233 85.091c-10.155 27.313-24.686 52.174-43.596 74.586 9.806 3.502 19.61 5.778 29.415 6.828s19.61 1.575 29.414 1.575c46.223 0 85.791-16.457 118.708-49.374 32.915-32.915 49.372-72.484 49.372-118.706z" />
<glyph unicode="&#xe91c;" glyph-name="import-contacts-filled" horiz-adv-x="1008" d="M546.257 235.798c30.815 14.707 61.805 25.737 92.97 33.091 31.165 7.353 63.206 11.030 96.121 11.030 25.212 0 49.898-2.101 74.060-6.302 24.162-4.203 48.499-10.505 73.011-18.91v416c-23.111 9.806-47.098 17.158-71.961 22.061-24.861 4.903-49.898 7.354-75.11 7.354-32.915 0-65.482-4.203-97.697-12.606-32.216-8.405-62.68-21.011-91.394-37.818v-413.899zM504.238 111.838c-33.617 26.613-70.034 47.273-109.253 61.98s-79.838 22.061-121.859 22.061c-29.414 0-58.303-3.852-86.666-11.556s-55.502-18.559-81.414-32.566c-14.707-7.703-28.889-7.353-42.545 1.050-13.657 8.405-20.485 20.66-20.485 36.768v506.343c0 7.705 1.926 15.057 5.778 22.061s9.63 12.255 17.333 15.757c32.916 16.108 66.707 28.539 101.373 37.294s70.209 13.13 106.626 13.13c40.62 0 80.364-5.252 119.232-15.757s76.162-26.262 111.88-47.273c35.717 21.011 73.010 36.768 111.878 47.273s78.614 15.757 119.232 15.757c36.417 0 71.959-4.377 106.626-13.13 34.667-8.755 68.458-21.186 101.374-37.294 7.703-3.502 13.481-8.754 17.332-15.757 3.852-7.004 5.778-14.356 5.778-22.061v-506.343c0-16.108-6.828-28.363-20.485-36.768-13.656-8.403-27.837-8.754-42.546-1.050-25.912 14.007-53.049 24.861-81.414 32.566-28.363 7.703-57.252 11.556-86.666 11.556-42.020 0-82.64-7.354-121.859-22.061-39.218-14.707-75.636-35.367-109.251-61.98z" />
<glyph unicode="&#xe91d;" glyph-name="linked-services-filled" horiz-adv-x="1008" d="M798.379 574.061c-39.919 0-74.586 11.905-104 35.716-29.415 23.813-49.023 53.926-58.829 90.345h-263.677c-7.703-29.415-22.235-54.803-43.596-76.162s-46.747-35.893-76.161-43.596v-263.677c36.417-9.804 66.532-29.414 90.343-58.827 23.811-29.415 35.717-64.082 35.717-104.001 0-46.221-16.458-85.791-49.374-118.706s-72.485-49.374-118.708-49.374c-46.221 0-85.791 16.458-118.706 49.374s-49.374 72.485-49.374 118.706c0 39.919 11.906 74.586 35.717 104.001s53.926 49.023 90.343 58.827v263.677c-36.417 9.806-66.532 29.414-90.343 58.829-23.811 29.414-35.717 63.73-35.717 102.949 0 46.223 16.458 85.791 49.374 118.707s72.485 49.374 118.706 49.374c39.219 0 73.536-11.906 102.951-35.717s49.023-53.926 58.827-90.344h263.677c9.806 36.418 29.414 66.532 58.829 90.344 29.414 23.811 64.081 35.717 104 35.717 46.223 0 85.791-16.458 118.706-49.374 32.917-32.916 49.374-72.484 49.374-118.707s-16.457-85.791-49.374-118.706c-32.915-32.917-72.484-49.374-118.706-49.374zM798.379-14.223c-46.223 0-85.791 16.458-118.706 49.374-32.917 32.915-49.374 72.485-49.374 118.706 0 46.223 16.457 85.791 49.374 118.708 32.915 32.915 72.484 49.374 118.706 49.374s85.791-16.458 118.706-49.374c32.917-32.917 49.374-72.485 49.374-118.708 0-46.221-16.457-85.791-49.374-118.706-32.915-32.915-72.484-49.374-118.706-49.374z" />
<glyph unicode="&#xe91e;" glyph-name="group" d="M47.030 111.838v117.656c0 23.813 6.128 45.697 18.384 65.657s28.539 35.191 48.848 45.697c43.421 21.71 87.541 37.994 132.363 48.848 44.822 10.856 90.343 16.283 136.566 16.283s91.744-5.427 136.566-16.283c44.822-10.854 88.942-27.138 132.363-48.848 20.311-10.505 36.594-25.737 48.849-45.697s18.384-41.844 18.384-65.657v-117.656h-672.323zM803.393 111.838v126.061c0 30.815-8.578 60.404-25.737 88.767-17.158 28.365-41.495 52.7-73.010 73.011 35.716-4.203 69.333-11.38 100.848-21.535s60.928-22.587 88.242-37.294c25.212-14.007 44.471-29.589 57.777-46.747s19.96-35.893 19.96-56.202v-126.061h-168.082zM383.192 448c-46.223 0-85.791 16.457-118.706 49.374-32.917 32.915-49.374 72.484-49.374 118.706s16.457 85.791 49.374 118.706c32.915 32.917 72.484 49.374 118.706 49.374s85.791-16.457 118.708-49.374c32.915-32.915 49.372-72.484 49.372-118.706s-16.457-85.791-49.372-118.706c-32.917-32.917-72.485-49.374-118.708-49.374zM803.393 616.080c0-46.223-16.457-85.791-49.372-118.706-32.917-32.917-72.485-49.374-118.708-49.374-7.703 0-17.509 0.875-29.414 2.625-11.906 1.752-21.71 3.677-29.415 5.778 18.91 22.412 33.441 47.273 43.596 74.586s15.233 55.678 15.233 85.091-5.077 57.778-15.233 85.091c-10.155 27.313-24.686 52.174-43.596 74.586 9.806 3.502 19.61 5.778 29.415 6.828s19.61 1.575 29.414 1.575c46.223 0 85.791-16.457 118.708-49.374 32.915-32.915 49.372-72.484 49.372-118.706zM131.071 195.879h504.242v33.615c0 7.705-1.925 14.707-5.778 21.011-3.851 6.302-8.929 11.205-15.233 14.707-37.818 18.91-75.985 33.091-114.505 42.546-38.518 9.455-77.386 14.182-116.606 14.182s-78.088-4.727-116.606-14.182c-38.518-9.455-76.687-23.636-114.505-42.546-6.303-3.502-11.38-8.405-15.232-14.707-3.852-6.304-5.778-13.306-5.778-21.011v-33.615zM383.192 532.039c23.111 0 42.896 8.229 59.353 24.688 16.458 16.457 24.688 36.242 24.688 59.353s-8.229 42.896-24.688 59.353c-16.457 16.458-36.242 24.688-59.353 24.688s-42.895-8.229-59.353-24.688c-16.458-16.457-24.688-36.242-24.688-59.353s8.229-42.896 24.688-59.353c16.458-16.458 36.242-24.688 59.353-24.688z" />
<glyph unicode="&#xe91f;" glyph-name="handshake" horiz-adv-x="1008" d="M498.995 111.839c2.802 0 5.604 0.7 8.405 2.101 2.802 1.401 4.903 2.8 6.304 4.202l344.565 344.567c8.405 8.403 14.531 17.858 18.384 28.363s5.778 21.009 5.778 31.514c0 11.207-1.925 21.886-5.778 32.040s-9.979 19.085-18.384 26.788l-178.586 178.586c-7.703 8.405-16.634 14.531-26.788 18.384s-20.835 5.778-32.040 5.778c-10.505 0-21.011-1.925-31.514-5.778-10.505-3.852-19.96-9.979-28.365-18.384l-11.556-11.556 77.739-78.787c10.504-9.804 18.209-21.011 23.11-33.617 4.903-12.606 7.354-25.912 7.354-39.919 0-29.414-9.979-54.101-29.94-74.060-19.959-19.96-44.646-29.94-74.060-29.94-14.007 0-27.488 2.451-40.445 7.353-12.957 4.903-24.337 12.257-34.141 22.061l-78.787 77.737-183.839-183.837c-2.101-2.101-3.677-4.377-4.727-6.828s-1.575-5.078-1.575-7.879c0-5.603 2.101-10.681 6.302-15.233s9.104-6.828 14.707-6.828c2.802 0 5.603 0.7 8.405 2.101 2.8 1.401 4.903 2.802 6.302 4.202l142.87 142.87 58.827-58.829-141.818-142.868c-2.101-2.101-3.677-4.377-4.727-6.828s-1.575-5.078-1.575-7.879c0-5.604 2.101-10.505 6.302-14.708s9.104-6.302 14.707-6.302c2.802 0 5.603 0.7 8.405 2.101s4.903 2.802 6.302 4.202l142.87 141.819 58.827-58.829-141.818-142.868c-2.101-1.401-3.677-3.502-4.727-6.304-1.050-2.8-1.575-5.603-1.575-8.405 0-5.603 2.101-10.504 6.302-14.707 4.203-4.202 9.104-6.302 14.707-6.302 2.802 0 5.429 0.524 7.88 1.575 2.45 1.052 4.726 2.627 6.828 4.727l142.868 141.819 58.829-58.829-142.87-142.868c-2.101-2.102-3.677-4.378-4.727-6.828-1.050-2.451-1.575-5.078-1.575-7.88 0-5.603 2.276-10.504 6.828-14.707s9.629-6.302 15.231-6.302zM497.945 27.798c-25.912 0-48.848 8.58-68.808 25.738s-31.69 38.693-35.191 64.605c-23.811 3.502-43.771 13.307-59.879 29.415-16.108 16.106-25.912 36.067-29.414 59.878-23.811 3.502-43.596 13.483-59.353 29.94s-25.387 36.243-28.889 59.353c-26.613 3.502-48.323 15.057-65.131 34.667s-25.212 42.721-25.212 69.334c0 14.006 2.626 27.488 7.879 40.443 5.252 12.957 12.781 24.337 22.585 34.143l243.718 242.666 137.616-137.616c1.399-2.101 3.5-3.677 6.302-4.727s5.603-1.576 8.405-1.576c6.302 0 11.556 1.927 15.757 5.778 4.202 3.852 6.302 8.931 6.302 15.233 0 2.802-0.524 5.603-1.575 8.405-1.050 2.8-2.627 4.901-4.727 6.302l-150.222 150.222c-7.703 8.405-16.632 14.531-26.788 18.384-10.155 3.852-20.834 5.778-32.040 5.778-10.504 0-21.009-1.925-31.514-5.778s-19.96-9.979-28.363-18.384l-148.122-149.172c-6.303-6.302-11.556-13.656-15.757-22.059-4.202-8.405-7.003-16.809-8.404-25.212-1.401-8.405-1.401-16.984 0-25.738s4.202-16.983 8.404-24.686l-60.929-60.93c-11.906 16.108-20.66 33.79-26.263 53.049-5.603 19.261-7.704 38.695-6.303 58.304s6.303 38.693 14.707 57.252c8.404 18.558 19.96 35.191 34.667 49.898l148.121 148.121c16.808 16.108 35.542 28.364 56.202 36.768s41.844 12.606 63.555 12.606c21.71 0 42.896-4.202 63.556-12.606s39.044-20.66 55.152-36.768l11.556-11.556 11.556 11.556c16.808 16.108 35.542 28.364 56.202 36.768s41.844 12.606 63.555 12.606c21.71 0 42.896-4.202 63.556-12.606s39.044-20.66 55.152-36.768l177.535-177.535c16.108-16.108 28.363-34.667 36.768-55.678 8.403-21.009 12.606-42.37 12.606-64.081s-4.203-42.895-12.606-63.555c-8.405-20.66-20.66-39.044-36.768-55.152l-344.567-343.515c-9.804-9.806-21.184-17.509-34.141-23.111s-26.438-8.405-40.445-8.405z" />
<glyph unicode="&#xe920;" glyph-name="linked-services" horiz-adv-x="1008" d="M798.379 574.061c-39.919 0-74.586 11.905-104 35.716-29.415 23.813-49.023 53.926-58.829 90.345h-263.677c-7.703-29.415-22.235-54.803-43.596-76.162s-46.747-35.893-76.161-43.596v-263.677c36.417-9.804 66.532-29.414 90.343-58.827 23.811-29.415 35.717-64.082 35.717-104.001 0-46.221-16.458-85.791-49.374-118.706s-72.485-49.374-118.708-49.374c-46.221 0-85.791 16.458-118.706 49.374s-49.374 72.485-49.374 118.706c0 39.919 11.906 74.586 35.717 104.001s53.926 49.023 90.343 58.827v263.677c-36.417 9.806-66.532 29.414-90.343 58.829-23.811 29.414-35.717 63.73-35.717 102.949 0 46.223 16.458 85.791 49.374 118.707s72.485 49.374 118.706 49.374c39.219 0 73.536-11.906 102.951-35.717s49.023-53.926 58.827-90.344h263.677c9.806 36.418 29.414 66.532 58.829 90.344 29.414 23.811 64.081 35.717 104 35.717 46.223 0 85.791-16.458 118.706-49.374 32.917-32.916 49.374-72.484 49.374-118.707s-16.457-85.791-49.374-118.706c-32.915-32.917-72.484-49.374-118.706-49.374zM210.095 69.818c23.111 0 42.896 8.403 59.355 25.212 16.457 16.808 24.686 36.417 24.686 58.827 0 23.111-8.229 42.896-24.686 59.353-16.458 16.458-36.243 24.688-59.355 24.688-22.41 0-42.020-8.229-58.828-24.688-16.808-16.457-25.212-36.242-25.212-59.353 0-22.41 8.404-42.020 25.212-58.827 16.808-16.809 36.418-25.212 58.828-25.212zM210.095 658.1c23.111 0 42.896 8.229 59.355 24.688 16.457 16.457 24.686 36.242 24.686 59.353s-8.229 42.896-24.686 59.353c-16.458 16.458-36.243 24.687-59.355 24.687-22.41 0-42.020-8.229-58.828-24.687s-25.212-36.242-25.212-59.353 8.404-42.896 25.212-59.353c16.808-16.458 36.418-24.688 58.828-24.688zM798.379-14.223c-46.223 0-85.791 16.458-118.706 49.374-32.917 32.915-49.374 72.485-49.374 118.706 0 46.223 16.457 85.791 49.374 118.708 32.915 32.915 72.484 49.374 118.706 49.374s85.791-16.458 118.706-49.374c32.917-32.917 49.374-72.485 49.374-118.708 0-46.221-16.457-85.791-49.374-118.706-32.915-32.915-72.484-49.374-118.706-49.374zM798.379 69.818c23.111 0 42.896 8.403 59.353 25.212s24.688 36.417 24.688 58.827c0 23.111-8.229 42.896-24.688 59.353-16.457 16.458-36.242 24.688-59.353 24.688s-42.896-8.229-59.353-24.688c-16.458-16.457-24.688-36.242-24.688-59.353 0-22.41 8.229-42.020 24.688-58.827 16.457-16.809 36.242-25.212 59.353-25.212zM798.379 658.1c23.111 0 42.896 8.229 59.353 24.688 16.458 16.457 24.688 36.242 24.688 59.353s-8.229 42.896-24.688 59.353c-16.457 16.458-36.242 24.687-59.353 24.687s-42.896-8.229-59.353-24.687c-16.458-16.457-24.688-36.242-24.688-59.353s8.229-42.896 24.688-59.353c16.457-16.458 36.242-24.688 59.353-24.688z" />
<glyph unicode="&#xe921;" glyph-name="family" horiz-adv-x="985" d="M732.604 704.885c-22.981 0-42.657 8.389-59.024 25.163s-24.547 36.941-24.547 60.498 8.181 43.724 24.547 60.499c16.369 16.774 36.045 25.163 59.024 25.163s42.657-8.389 59.024-25.163c16.366-16.774 24.547-36.942 24.547-60.499s-8.181-43.724-24.547-60.498c-16.369-16.774-36.045-25.163-59.024-25.163zM690.819 19.594v342.646c0 28.551-7.136 54.25-21.415 77.095-14.28 22.842-32.559 40.689-54.843 53.538l36.559 110.288c5.572 17.845 15.843 32.123 30.819 42.831s31.864 16.062 50.666 16.062c18.805 0 35.695-5.354 50.666-16.062s25.243-24.986 30.815-42.831l106.555-326.583h-104.467v-256.985h-125.357zM502.78 469.317c-17.413 0-32.213 6.248-44.399 18.736-12.185 12.492-18.28 27.663-18.28 45.511 0 17.844 6.095 33.015 18.28 45.507 12.189 12.491 26.987 18.738 44.399 18.738s32.21-6.247 44.397-18.738 18.28-27.663 18.28-45.507c0-17.847-6.091-33.019-18.28-45.511-12.189-12.488-26.987-18.736-44.397-18.736zM210.277 704.885c-22.981 0-42.657 8.389-59.022 25.163s-24.55 36.941-24.55 60.498c0 23.557 8.182 43.724 24.55 60.499s36.042 25.163 59.022 25.163c22.981 0 42.657-8.389 59.022-25.163s24.55-36.942 24.55-60.499c0-23.557-8.182-43.724-24.55-60.498s-36.042-25.163-59.022-25.163zM126.705 19.594v299.815h-62.68v256.983c0 23.557 8.182 43.724 24.55 60.499s36.042 25.163 59.022 25.163h125.358c22.981 0 42.657-8.389 59.022-25.163s24.55-36.942 24.55-60.499v-256.983h-62.68v-299.815h-167.144zM440.099 19.594v171.323h-41.786v171.323c0 17.844 6.092 33.015 18.28 45.507s26.987 18.739 44.399 18.739h83.571c17.411 0 32.21-6.248 44.397-18.739s18.284-27.663 18.284-45.507v-171.323h-41.789v-171.323h-125.357z" />
<glyph unicode="&#xe922;" glyph-name="calendar-today" horiz-adv-x="878" d="M97.524-15.236c-26.819 0-49.778 9.545-68.876 28.643s-28.648 42.057-28.648 68.879v682.666c0 26.819 9.549 49.778 28.648 68.876s42.057 28.648 68.876 28.648h48.762v97.524h97.524v-97.524h390.096v97.524h97.524v-97.524h48.764c26.814 0 49.774-9.55 68.871-28.648s28.65-42.057 28.65-68.876v-682.666c0-26.821-9.552-49.781-28.65-68.879s-42.057-28.643-68.871-28.643h-682.669zM97.524 82.286h682.669v487.619h-682.669v-487.619zM97.524 667.429h682.669v97.524h-682.669v-97.524z" />
<glyph unicode="&#xe923;" glyph-name="button-arrow" d="M512 960c-282.567 0-512-229.433-512-512s229.433-512 512-512c282.567 0 512 229.433 512 512s-229.433 512-512 512zM512 925.867c264.12 0 477.867-213.746 477.867-477.867s-213.746-477.867-477.867-477.867c-264.12 0-477.867 213.746-477.867 477.867s213.746 477.867 477.867 477.867zM582.072 439.875l-191.973 199.381 58.426 60.682 250.4-260.064-250.4-260.064-58.426 60.681z" />
<glyph unicode="&#xe924;" glyph-name="call" d="M840.561 75.2c-87.777 0-174.502 19.136-260.173 57.405-85.673 38.272-163.62 92.518-233.841 162.742-70.223 70.221-124.47 148.168-162.74 233.841-38.271 85.67-57.407 172.396-57.407 260.172 0 12.64 4.213 23.173 12.64 31.6s18.96 12.64 31.6 12.64h170.641c9.83 0 18.609-3.336 26.332-10.007s12.288-14.571 13.693-23.7l27.387-147.467c1.403-11.236 1.052-20.716-1.055-28.439-2.107-7.726-5.967-14.395-11.587-20.014l-102.172-103.227c14.044-25.981 30.723-51.087 50.033-75.313 19.313-24.228 40.553-47.575 63.726-70.047 21.77-21.77 44.593-41.958 68.467-60.567 23.877-18.609 49.157-35.638 75.84-51.087l99.013 99.013c6.321 6.321 14.572 11.062 24.755 14.221 10.181 3.159 20.188 4.037 30.019 2.634l145.359-29.494c9.833-2.808 17.907-7.9 24.228-15.273s9.48-15.626 9.48-24.755v-170.639c0-12.639-4.214-23.173-12.639-31.601-8.428-8.425-18.962-12.639-31.601-12.639zM253.853 580.8l69.521 69.519-17.907 99.014h-93.747c3.511-28.791 8.427-57.232 14.747-85.32s15.449-55.826 27.387-83.213zM630.948 203.707c27.384-11.937 55.299-21.417 83.738-28.439 28.442-7.025 57.057-11.589 85.847-13.693v92.692l-99.013 20.014-70.572-70.574z" />
<glyph unicode="&#xe925;" glyph-name="chevron-down" d="M101.333 535.924l75.733 72.076 350.933-333.986 350.933 333.986 75.733-72.076-426.667-406.063-426.667 406.063z" />
<glyph unicode="&#xe926;" glyph-name="chevron-left" d="M633.579 858.572l75.733-75.733-350.934-350.934 350.934-350.932-75.735-75.735-426.667 426.667 426.669 426.668z" />
<glyph unicode="&#xe927;" glyph-name="chevron-right" d="M390.423 5.329l-75.735 75.733 350.934 350.934-350.934 350.932 75.735 75.733 426.667-426.666-426.667-426.667z" />
<glyph unicode="&#xe928;" glyph-name="child-care" d="M618.667 458.667c-14.933 0-27.554 5.154-37.867 15.467s-15.467 22.933-15.467 37.867c0 14.933 5.154 27.555 15.467 37.867s22.933 15.467 37.867 15.467c14.933 0 27.554-5.155 37.867-15.467s15.467-22.933 15.467-37.867c0-14.933-5.154-27.554-15.467-37.867s-22.933-15.467-37.867-15.467zM405.333 458.667c-14.933 0-27.555 5.154-37.867 15.467s-15.467 22.933-15.467 37.867c0 14.933 5.155 27.555 15.467 37.867s22.933 15.467 37.867 15.467c14.933 0 27.554-5.155 37.867-15.467s15.467-22.933 15.467-37.867c0-14.933-5.154-27.554-15.467-37.867s-22.933-15.467-37.867-15.467zM512 234.667c-42.667 0-81.246 11.733-115.733 35.2-34.489 23.467-59.911 54.4-76.267 92.8h384c-16.354-38.4-41.779-69.333-76.267-92.8s-73.067-35.2-115.733-35.2zM512 64c-53.333 0-103.289 10.133-149.867 30.4s-87.111 47.646-121.6 82.133c-34.489 34.487-61.867 75.021-82.133 121.6s-30.4 96.533-30.4 149.867c0 53.333 10.133 103.289 30.4 149.867s47.645 87.111 82.133 121.6c34.489 34.489 75.022 61.867 121.6 82.133s96.533 30.4 149.867 30.4c53.333 0 103.287-10.133 149.867-30.4s87.113-47.645 121.6-82.133c34.487-34.489 61.867-75.022 82.133-121.6s30.4-96.533 30.4-149.867c0-53.333-10.133-103.287-30.4-149.867s-47.646-87.113-82.133-121.6c-34.487-34.487-75.021-61.867-121.6-82.133s-96.533-30.4-149.867-30.4zM512 149.333c82.487 0 152.887 29.154 211.2 87.467s87.467 128.713 87.467 211.2c0 82.487-29.154 152.889-87.467 211.2s-128.713 87.467-211.2 87.467h-12.8c-4.267 0-8.533-0.711-12.8-2.133-4.267-4.267-7.113-8.889-8.533-13.867s-2.133-10.311-2.133-16c0-14.933 5.154-27.555 15.467-37.867s22.933-15.467 37.867-15.467c6.4 0 12.267 1.067 17.6 3.2s10.846 3.2 16.533 3.2c8.533 0 15.646-3.2 21.333-9.6s8.533-13.867 8.533-22.4c0-16.355-7.646-26.845-22.933-31.467s-28.979-6.933-41.067-6.933c-32 0-59.554 11.555-82.667 34.667-23.111 23.111-34.667 50.667-34.667 82.667v6.4c0 2.133 0.355 4.978 1.067 8.533-59.022-21.333-107.022-57.245-144-107.733s-55.467-108.446-55.467-173.867c0-82.487 29.155-152.887 87.467-211.2s128.713-87.467 211.2-87.467z" />
<glyph unicode="&#xe929;" glyph-name="clock" d="M628.29 274.256l57.487 57.487-151.929 151.933v188.887h-82.125v-221.737l176.566-176.57zM492.786 56.627c-56.803 0-110.186 10.781-160.145 32.338s-93.417 50.815-130.373 87.769c-36.956 36.958-66.213 80.413-87.771 130.372-21.558 49.963-32.337 103.342-32.337 160.145s10.779 110.184 32.337 160.143c21.558 49.959 50.815 93.417 87.771 130.373s80.414 66.213 130.373 87.771c49.959 21.558 103.342 32.337 160.145 32.337 56.799 0 110.182-10.779 160.141-32.337s93.417-50.815 130.372-87.771c36.958-36.956 66.216-80.414 87.773-130.373s32.338-103.34 32.338-160.143c0-56.803-10.781-110.182-32.338-160.145-21.557-49.959-50.815-93.413-87.773-130.372-36.954-36.954-80.413-66.212-130.372-87.769s-103.342-32.338-160.141-32.338zM492.786 138.752c91.021 0 168.526 31.994 232.514 95.982 63.988 63.992 95.986 141.496 95.986 232.518s-31.998 168.527-95.986 232.516c-63.988 63.989-141.492 95.984-232.514 95.984s-168.529-31.995-232.518-95.984-95.983-141.494-95.983-232.516c0-91.021 31.994-168.526 95.983-232.518 63.989-63.988 141.494-95.982 232.518-95.982z" />
<glyph unicode="&#xe92a;" glyph-name="distance" horiz-adv-x="989" d="M494.345 36.048c-72.778 0-132.17 11.497-178.17 34.498-46.002 23.001-69.002 52.697-69.002 89.088 0 24.029 9.955 44.971 29.867 62.821 19.911 17.853 47.375 31.928 82.392 42.228l23.686-78.272c-11.674-3.432-22.313-7.726-31.927-12.874-9.612-5.148-16.135-9.784-19.568-13.902 8.925-10.989 29.524-20.6 61.794-28.838s65.91-12.359 100.928-12.359c35.017 0 68.83 4.121 101.443 12.359s53.382 17.849 62.309 28.838c-3.432 4.117-9.954 8.753-19.569 13.902-9.611 5.148-20.254 9.442-31.924 12.874l23.686 78.272c35.017-10.3 62.309-24.375 81.874-42.228 19.569-17.849 29.353-38.792 29.353-62.821 0-36.391-23.001-66.087-69.003-89.088-45.999-23.001-105.391-34.498-178.169-34.498zM494.345 311.028c12.359 22.655 25.402 43.425 39.134 62.305 13.732 18.884 27.122 36.906 40.166 54.071 25.406 32.955 45.66 62.651 60.766 89.084 15.102 26.433 22.655 59.219 22.655 98.354 0 45.315-15.791 83.764-47.372 115.347-31.585 31.583-70.035 47.374-115.348 47.374s-83.763-15.791-115.348-47.374c-31.582-31.583-47.373-70.032-47.373-115.347 0-39.135 7.553-71.921 22.656-98.354 15.106-26.433 35.36-56.129 60.766-89.084 13.044-17.164 26.433-35.187 40.166-54.071 13.732-18.88 26.776-39.65 39.134-62.305zM494.345 159.635c-7.553 0-14.417 2.228-20.597 6.691s-10.643 10.473-13.39 18.026c-15.791 48.746-35.702 89.6-59.735 122.555-24.029 32.955-47.372 64.54-70.031 94.748-21.971 30.212-41.024 61.451-57.159 93.721s-24.202 72.093-24.202 119.466c0 68.659 23.688 126.676 71.062 174.051s105.393 71.062 174.051 71.062c68.657 0 126.676-23.688 174.052-71.062 47.372-47.375 71.062-105.392 71.062-174.051 0-47.373-7.895-87.196-23.69-119.466-15.791-32.27-35.014-63.509-57.672-93.721-21.97-30.208-45.144-61.793-69.519-94.748-24.371-32.955-44.456-73.809-60.247-122.555-2.747-7.553-7.21-13.563-13.39-18.026s-13.044-6.691-20.597-6.691zM494.345 527.304c24.032 0 44.629 8.58 61.793 25.745s25.748 37.764 25.748 61.794c0 24.031-8.584 44.628-25.748 61.793s-37.761 25.747-61.793 25.747c-24.032 0-44.629-8.583-61.793-25.747s-25.748-37.762-25.748-61.793c0-24.029 8.584-44.629 25.748-61.794s37.761-25.745 61.793-25.745z" />
<glyph unicode="&#xe92b;" glyph-name="egg" horiz-adv-x="983" d="M491.52 79.36c-79.872 0-147.627 27.82-203.264 83.456s-83.456 123.392-83.456 203.264c0 52.564 8.704 105.472 26.112 158.72s39.936 101.547 67.584 144.896c27.648 43.349 58.539 78.677 92.672 105.984 34.132 27.307 67.584 40.96 100.352 40.96 33.452 0 67.072-13.653 100.864-40.96s64.512-62.635 92.16-105.984c27.648-43.349 50.176-91.648 67.584-144.896s26.112-106.156 26.112-158.72c0-79.872-27.82-147.628-83.456-203.264s-123.392-83.456-203.264-83.456zM491.52 161.28c56.66 0 104.96 19.968 144.896 59.904s59.904 88.236 59.904 144.896c0 38.912-6.656 79.872-19.968 122.88s-30.036 82.773-50.176 119.296c-20.14 36.523-42.156 66.731-66.048 90.624s-46.764 35.84-68.608 35.84c-21.164 0-43.86-11.947-68.096-35.84s-46.421-54.101-66.56-90.624-36.864-76.288-50.176-119.296c-13.312-43.008-19.968-83.968-19.968-122.88 0-56.66 19.968-104.96 59.904-144.896s88.236-59.904 144.896-59.904zM532.48 202.24c11.604 0 21.332 3.924 29.184 11.776s11.776 17.58 11.776 29.184c0 11.604-3.924 21.332-11.776 29.184s-17.58 11.776-29.184 11.776c-34.132 0-63.148 11.948-87.040 35.84s-35.84 52.908-35.84 87.040c0 11.604-3.925 21.332-11.776 29.184s-17.579 11.776-29.184 11.776c-11.605 0-21.333-3.924-29.184-11.776s-11.776-17.58-11.776-29.184c0-56.66 19.968-104.96 59.904-144.896s88.236-59.904 144.896-59.904z" />
<glyph unicode="&#xe92c;" glyph-name="ellipse" d="M512.058 21.335c-59.022 0-114.489 11.197-166.4 33.601-51.911 22.399-97.067 52.798-135.467 91.198s-68.8 83.554-91.2 135.466c-22.4 51.912-33.6 107.378-33.6 166.4s11.2 114.489 33.6 166.4c22.4 51.911 52.8 97.067 91.2 135.467s83.556 68.8 135.467 91.2c51.911 22.4 107.378 33.6 166.4 33.6s114.488-11.2 166.4-33.6c51.912-22.4 97.066-52.8 135.466-91.2s68.799-83.556 91.198-135.467c22.403-51.911 33.601-107.378 33.601-166.4s-11.197-114.488-33.601-166.4c-22.399-51.912-52.798-97.066-91.198-135.466s-83.554-68.799-135.466-91.198c-51.912-22.403-107.378-33.601-166.4-33.601zM512.058 106.665c95.29 0 175.999 33.071 242.131 99.203 66.137 66.133 99.203 146.842 99.203 242.131s-33.066 176.001-99.203 242.134c-66.133 66.133-146.842 99.2-242.131 99.2s-176-33.067-242.133-99.2c-66.133-66.133-99.2-146.844-99.2-242.134s33.066-175.999 99.2-242.131c66.133-66.133 146.844-99.203 242.133-99.203z" />
<glyph unicode="&#xe92d;" glyph-name="events" horiz-adv-x="1126" d="M335.575 64v85.335h184.361v132.265c-37.64 7.823-71.247 22.579-100.823 44.268s-51.275 48.886-65.103 81.597c-57.613 6.4-105.816 29.691-144.609 69.869s-58.189 87.289-58.189 141.333v42.667c0 23.466 9.026 43.555 27.078 60.266s39.753 25.066 65.103 25.066h92.181v85.334h460.903v-85.334h92.186c25.349 0 47.048-8.355 65.101-25.066s27.080-36.8 27.080-60.266v-42.667c0-54.044-19.4-101.155-58.189-141.333-38.794-40.178-86.999-63.469-144.609-69.869-13.829-32.712-35.528-59.909-65.106-81.597-29.573-21.688-63.181-36.444-100.823-44.268v-132.265h184.361v-85.335h-460.903zM335.575 499.2v162.134h-92.181v-42.667c0-27.022 8.45-51.378 25.35-73.066s39.177-37.155 66.831-46.4zM566.026 362.665c38.41 0 71.055 12.447 97.946 37.335 26.885 24.888 40.325 55.111 40.325 90.666v256h-276.541v-256c0-35.555 13.443-65.778 40.329-90.666s59.531-37.335 97.942-37.335zM796.477 499.2c27.658 9.245 49.935 24.711 66.831 46.4 16.901 21.689 25.354 46.045 25.354 73.066v42.667h-92.186v-162.134z" />
<glyph unicode="&#xe92e;" glyph-name="filter" d="M470.52 116.148c-11.753 0-21.605 3.975-29.556 11.926-7.949 7.951-11.926 17.802-11.926 29.556v248.889l-240.592 306.963c-10.37 13.828-11.926 28.346-4.667 43.556s19.877 22.814 37.852 22.814h580.741c17.975 0 30.593-7.605 37.852-22.814s5.704-29.728-4.667-43.556l-240.593-306.963v-248.889c0-11.753-3.975-21.605-11.926-29.556s-17.802-11.926-29.556-11.926h-82.963zM512.002 435.557l205.333 261.332h-410.666l205.333-261.332z" />
<glyph unicode="&#xe92f;" glyph-name="grocery" d="M682.667 21.333c-71.113 0-131.554 24.887-181.333 74.667s-74.667 110.221-74.667 181.333c0 71.113 24.887 131.554 74.667 181.333s110.221 74.667 181.333 74.667c71.113 0 131.554-24.887 181.333-74.667s74.667-110.221 74.667-181.333c0-71.113-24.887-131.554-74.667-181.333s-110.221-74.667-181.333-74.667zM682.667 106.667c46.933 0 87.113 16.713 120.533 50.133s50.133 73.6 50.133 120.533c0 46.933-16.713 87.113-50.133 120.533s-73.6 50.133-120.533 50.133c-46.933 0-87.113-16.713-120.533-50.133s-50.133-73.6-50.133-120.533c0-46.933 16.713-87.113 50.133-120.533s73.6-50.133 120.533-50.133zM170.667 106.667c-23.467 0-43.555 8.354-60.267 25.067s-25.067 36.8-25.067 60.267v324.267c0 5.687 0.533 11.379 1.6 17.067 1.067 5.689 2.667 11.378 4.8 17.067l85.333 196.267h-6.4c-12.089 0-22.222 4.089-30.4 12.267s-12.267 18.311-12.267 30.4v42.667c0 12.089 4.089 22.222 12.267 30.4s18.311 12.267 30.4 12.267h298.667c12.087 0 22.221-4.089 30.4-12.267s12.267-18.311 12.267-30.4v-42.667c0-12.089-4.087-22.222-12.267-30.4s-18.313-12.267-30.4-12.267h-6.4l70.4-162.133c-13.513-7.111-26.313-14.578-38.4-22.4s-23.467-16.711-34.133-26.667l-89.6 211.2h-102.4l-98.133-230.4v-324.267h181.333c3.555-14.933 8.355-29.687 14.4-44.267s13.333-28.267 21.867-41.067h-217.6zM682.667 576c-29.867 0-55.113 10.311-75.733 30.933s-30.933 45.867-30.933 75.733c0 29.867 10.313 55.111 30.933 75.733s45.867 30.933 75.733 30.933v-213.333c0 29.867 10.313 55.111 30.933 75.733s45.867 30.933 75.733 30.933c29.867 0 55.113-10.311 75.733-30.933s30.933-45.867 30.933-75.733h-213.333z" />
<glyph unicode="&#xe930;" glyph-name="health-and-beauty" d="M267.636 106.667l-139.636 375.467 174.545 102.4v204.8h139.635v-204.8l174.545-102.4-139.635-375.467h-209.454zM686.545 106.667c-9.89 0-18.18 3.273-24.87 9.813-6.694 6.541-10.039 14.647-10.039 24.32s3.345 17.779 10.039 24.32c6.69 6.541 14.98 9.813 24.87 9.813h104.73v68.267h-104.73c-9.89 0-18.18 3.273-24.87 9.813-6.694 6.541-10.039 14.647-10.039 24.32s3.345 17.779 10.039 24.32c6.69 6.541 14.98 9.813 24.87 9.813h104.73v68.267h-104.73c-9.89 0-18.18 3.273-24.87 9.813-6.694 6.541-10.039 14.647-10.039 24.32s3.345 17.779 10.039 24.32c6.69 6.541 14.98 9.813 24.87 9.813h104.73v68.267h-104.73c-9.89 0-18.18 3.273-24.87 9.813-6.694 6.541-10.039 14.649-10.039 24.32s3.345 17.778 10.039 24.32c6.69 6.542 14.98 9.813 24.87 9.813h104.73v68.267h-104.73c-9.89 0-18.18 3.271-24.87 9.813-6.694 6.542-10.039 14.649-10.039 24.32s3.345 17.778 10.039 24.32c6.69 6.542 14.98 9.813 24.87 9.813h139.635c19.2 0 35.639-6.685 49.31-20.053 13.675-13.369 20.51-29.44 20.51-48.213v-477.867c0-18.773-6.835-34.846-20.51-48.213-13.67-13.367-30.11-20.053-49.31-20.053h-139.635zM316.509 174.933h111.711l102.98 278.187-108.218 63.147h-101.236l-108.218-63.147 102.982-278.187z" />
<glyph unicode="&#xe931;" glyph-name="home" d="M255.99 149.334h128.001v256h256v-256h128v384l-256 191.999-256.001-191.999v-384zM170.657 64v512l341.334 256 341.331-256v-512h-298.666v256h-85.334v-256h-298.665z" />
<glyph unicode="&#xe932;" glyph-name="icecream" horiz-adv-x="983" d="M493.568-2.56l-192.512 368.64c-48.469-2.048-90.283 11.948-125.44 41.984s-52.736 70.656-52.736 121.856c0 34.816 10.069 66.219 30.208 94.208s45.568 47.787 76.288 59.392c12.288 62.123 42.837 113.493 91.648 154.112s105.644 60.928 170.496 60.928c64.852 0 121.684-20.309 170.496-60.928s79.36-91.989 91.648-154.112c30.72-11.605 56.148-31.403 76.288-59.392s30.208-59.392 30.208-94.208c0-51.2-18.092-91.82-54.272-121.856s-76.8-44.032-121.856-41.984l-190.464-368.64zM286.72 448c10.24 0 20.309 1.708 30.208 5.12s18.944 9.216 27.136 17.408l22.528 22.528 26.624-16.384c14.336-9.556 29.868-16.724 46.592-21.504s33.964-7.168 51.712-7.168c17.748 0 34.988 2.388 51.712 7.168s32.256 11.948 46.592 21.504l26.624 16.384 22.528-22.528c8.192-8.192 17.236-13.996 27.136-17.408s19.968-5.12 30.208-5.12c22.528 0 41.812 8.020 57.856 24.064s24.064 35.328 24.064 57.856c0 20.48-6.484 38.4-19.456 53.76s-29.696 24.747-50.176 28.16l-30.72 4.096-2.048 32.768c-3.412 47.104-22.868 86.869-58.368 119.296s-77.484 48.64-125.952 48.64c-48.468 0-90.453-16.213-125.952-48.64s-54.955-72.192-58.368-119.296l-2.048-32.768-30.72-6.144c-20.48-4.096-37.205-13.312-50.176-27.648s-19.456-31.744-19.456-52.224c0-22.528 8.021-41.812 24.064-57.856s35.328-24.064 57.856-24.064zM493.568 175.616l110.592 215.040c-16.384-8.192-34.132-14.336-53.248-18.432s-38.912-6.144-59.392-6.144c-18.432 0-37.036 2.048-55.808 6.144s-37.035 10.24-54.784 18.432l112.64-215.040z" />
<glyph unicode="&#xe933;" glyph-name="import-contacts" horiz-adv-x="1126" d="M312.498 277.335c36.104 0 71.248-3.738 105.432-11.203s68.175-18.668 101.975-33.597v420.264c-31.495 17.066-64.911 29.866-100.247 38.4s-71.056 12.8-107.16 12.8c-27.655 0-55.117-2.489-82.387-7.466s-53.58-12.445-78.93-22.4v-422.398c26.886 8.53 53.58 14.93 80.082 19.2 26.502 4.265 53.58 6.4 81.235 6.4zM612.086 232.535c33.802 14.93 67.794 26.132 101.975 33.597 34.186 7.465 69.33 11.203 105.431 11.203 27.658 0 54.733-2.135 81.239-6.4 26.501-4.27 53.192-10.67 80.082-19.2v422.398c-25.354 9.955-51.661 17.422-78.93 22.4-27.274 4.978-54.733 7.466-82.391 7.466-36.101 0-71.823-4.266-107.156-12.8-35.338-8.534-68.751-21.334-100.25-38.4v-420.264zM565.996 106.665c-36.874 27.023-76.817 48-119.835 62.935s-87.572 22.4-133.662 22.4c-32.264 0-63.951-3.912-95.062-11.735s-60.878-18.842-89.3-33.065c-16.132-7.823-31.687-7.465-46.667 1.065-14.979 8.535-22.469 20.977-22.469 37.335v514.133c0 7.822 2.113 15.289 6.338 22.4s10.563 12.444 19.013 16c35.336 17.066 72.208 29.866 110.617 38.4s77.586 12.8 117.531 12.8c44.554 0 88.148-5.334 130.782-16s83.537-26.667 122.716-48c39.178 21.333 80.082 37.333 122.716 48s86.226 16 130.78 16c39.946 0 79.124-4.267 117.535-12.8 38.405-8.534 75.279-21.334 110.618-38.4 8.448-3.556 14.787-8.889 19.011-16s6.339-14.578 6.339-22.4v-514.133c0-16.358-7.491-28.8-22.472-37.335-14.976-8.53-30.536-8.888-46.664-1.065-28.426 14.223-58.189 25.242-89.303 33.065-31.109 7.823-62.797 11.735-95.063 11.735-46.090 0-90.644-7.465-133.663-22.4-43.013-14.935-82.959-35.912-119.834-62.935z" />
<glyph unicode="&#xe934;" glyph-name="info" d="M469.333 234.667h85.333v256h-85.333v-256zM512 576c12.087 0 22.221 4.089 30.4 12.267s12.267 18.311 12.267 30.4c0 12.089-4.087 22.222-12.267 30.4s-18.313 12.267-30.4 12.267c-12.087 0-22.221-4.089-30.4-12.267s-12.267-18.311-12.267-30.4c0-12.089 4.087-22.222 12.267-30.4s18.313-12.267 30.4-12.267zM512 21.333c-59.021 0-114.489 11.2-166.4 33.6s-97.067 52.8-135.467 91.2c-38.4 38.4-68.8 83.554-91.2 135.467s-33.6 107.379-33.6 166.4c0 59.021 11.2 114.489 33.6 166.4s52.8 97.067 91.2 135.467c38.4 38.4 83.555 68.8 135.467 91.2s107.379 33.6 166.4 33.6c59.021 0 114.487-11.2 166.4-33.6s97.067-52.8 135.467-91.2c38.4-38.4 68.8-83.555 91.2-135.467s33.6-107.379 33.6-166.4c0-59.021-11.2-114.487-33.6-166.4s-52.8-97.067-91.2-135.467c-38.4-38.4-83.554-68.8-135.467-91.2s-107.379-33.6-166.4-33.6zM512 106.667c95.287 0 176 33.067 242.133 99.2s99.2 146.846 99.2 242.133c0 95.289-33.067 176-99.2 242.133s-146.846 99.2-242.133 99.2c-95.289 0-176-33.067-242.133-99.2s-99.2-146.845-99.2-242.133c0-95.287 33.067-176 99.2-242.133s146.845-99.2 242.133-99.2z" />
<glyph unicode="&#xe935;" glyph-name="psychiatry" d="M469.335 64v340.266c-45.513 0-89.246 8.713-131.202 26.134s-78.933 42.131-110.933 74.133c-32 32-56.534 68.978-73.6 110.933s-25.6 85.689-25.6 131.2v85.333h85.333c44.8 0 88.178-8.711 130.133-26.133s78.933-42.133 110.931-74.133c22.047-22.044 40.359-46.222 54.935-72.533s25.778-54.4 33.601-84.267c3.557 4.978 7.466 9.778 11.731 14.4 4.27 4.622 8.891 9.422 13.869 14.4 31.998 32 68.978 56.711 110.935 74.133 41.953 17.422 85.687 26.133 131.197 26.133h85.335v-85.333c0-45.511-8.713-89.244-26.134-131.198-17.421-41.957-42.131-78.937-74.133-110.935-31.998-32.002-68.799-56.534-110.401-73.599-41.597-17.070-85.152-25.6-130.667-25.6v-213.335h-85.33zM469.335 490.665c0 34.135-6.58 66.668-19.736 97.601-13.154 30.933-31.821 58.489-55.999 82.667s-51.733 42.845-82.667 56c-30.933 13.156-63.467 19.733-97.6 19.733 0-34.133 6.4-66.844 19.2-98.133s31.289-59.022 55.467-83.2c24.178-24.178 51.911-42.667 83.2-55.466s64-19.202 98.135-19.202zM554.665 362.665c34.135 0 66.667 6.402 97.601 19.202s58.488 31.29 82.668 55.465c24.175 24.18 42.843 51.912 55.999 83.201s19.732 64 19.732 98.133c-34.13 0-66.845-6.578-98.13-19.733-31.29-13.155-59.022-31.822-83.202-56-24.175-24.178-42.665-51.734-55.465-82.668s-19.202-63.466-19.202-97.601z" />
<glyph unicode="&#xe936;" glyph-name="liquor" horiz-adv-x="983" d="M122.88 38.4v81.92h81.92v131.072c-23.893 8.192-43.52 22.7-58.88 43.52s-23.040 44.544-23.040 71.168v327.68h245.76v-327.68c0-26.624-7.68-50.348-23.040-71.168s-34.987-35.328-58.88-43.52v-131.072h81.92v-81.92h-245.76zM204.8 488.96h81.92v122.88h-81.92v-122.88zM245.76 325.12c11.605 0 21.333 3.924 29.184 11.776s11.776 17.58 11.776 29.184v40.96h-81.92v-40.96c0-11.604 3.925-21.332 11.776-29.184s17.579-11.776 29.184-11.776zM532.48 38.4c-22.528 0-41.812 8.020-57.856 24.064s-24.064 35.328-24.064 57.856v391.168c0 17.748 5.12 33.62 15.36 47.616s23.552 24.064 39.936 30.208l38.912 14.336c9.556 3.413 16.724 8.363 21.504 14.848s7.168 14.507 7.168 24.064v174.080c0 11.605 3.924 21.333 11.776 29.184s17.58 11.776 29.184 11.776h122.88c11.604 0 21.332-3.925 29.184-11.776s11.776-17.579 11.776-29.184v-174.080c0-9.557 2.388-17.579 7.168-24.064s11.948-11.435 21.504-14.848l38.912-14.336c16.384-6.144 29.696-16.213 39.936-30.208s15.36-29.868 15.36-47.616v-391.168c0-22.528-8.020-41.812-24.064-57.856s-35.328-24.064-57.856-24.064h-286.72zM655.36 734.72h40.96v40.96h-40.96v-40.96zM532.48 448h286.72v63.488l-38.912 14.336c-25.94 9.556-46.42 24.576-61.44 45.056s-22.528 43.691-22.528 69.632v12.288h-40.96v-12.288c0-25.941-7.508-49.152-22.528-69.632s-35.5-35.5-61.44-45.056l-38.912-14.336v-63.488zM532.48 120.32h286.72v81.92h-286.72v-81.92zM532.48 284.16h286.72v81.92h-286.72v-81.92z" />
<glyph unicode="&#xe937;" glyph-name="local-bar" horiz-adv-x="983" d="M245.76 79.36v81.92h204.8v204.8l-327.68 368.64v81.92h737.28v-81.92l-327.68-368.64v-204.8h204.8v-81.92h-491.52zM305.152 652.8h372.736l73.728 81.92h-520.192l73.728-81.92zM491.52 443.904l113.664 126.976h-227.328l113.664-126.976z" />
<glyph unicode="&#xe938;" glyph-name="local-shipping" d="M256 106.667c-35.555 0-65.778 12.446-90.667 37.333s-37.333 55.113-37.333 90.667h-85.333v469.333c0 23.467 8.355 43.555 25.067 60.267s36.8 25.067 60.267 25.067h597.333v-170.667h128l128-170.667v-213.333h-85.333c0-35.554-12.446-65.779-37.333-90.667s-55.113-37.333-90.667-37.333c-35.554 0-65.779 12.446-90.667 37.333s-37.333 55.113-37.333 90.667h-256c0-35.554-12.445-65.779-37.333-90.667s-55.111-37.333-90.667-37.333zM256 192c12.089 0 22.222 4.087 30.4 12.267s12.267 18.313 12.267 30.4c0 12.087-4.089 22.221-12.267 30.4s-18.311 12.267-30.4 12.267c-12.089 0-22.222-4.087-30.4-12.267s-12.267-18.313-12.267-30.4c0-12.087 4.089-22.221 12.267-30.4s18.311-12.267 30.4-12.267zM128 320h34.133c12.089 12.8 25.955 23.113 41.6 30.933s33.067 11.733 52.267 11.733c19.2 0 36.622-3.913 52.267-11.733s29.511-18.133 41.6-30.933h290.133v384h-512v-384zM768 192c12.087 0 22.221 4.087 30.4 12.267s12.267 18.313 12.267 30.4c0 12.087-4.087 22.221-12.267 30.4s-18.313 12.267-30.4 12.267c-12.087 0-22.221-4.087-30.4-12.267s-12.267-18.313-12.267-30.4c0-12.087 4.087-22.221 12.267-30.4s18.313-12.267 30.4-12.267zM725.333 405.333h181.333l-96 128h-85.333v-128z" />
<glyph unicode="&#xe939;" glyph-name="local-gas-station-filled" horiz-adv-x="1008" d="M168.076 69.818v672.323c0 23.111 8.229 42.896 24.688 59.355 16.457 16.457 36.242 24.686 59.353 24.686h252.121c23.111 0 42.895-8.229 59.353-24.686s24.686-36.243 24.686-59.355v-294.141h42.021c23.111 0 42.895-8.229 59.353-24.686s24.686-36.243 24.686-59.355v-189.091c0-11.905 4.028-21.886 12.082-29.94s18.033-12.080 29.94-12.080c11.905 0 21.886 4.026 29.94 12.080s12.080 18.035 12.080 29.94v302.545c-6.302-3.502-12.957-5.778-19.959-6.828-7.004-1.050-14.358-1.575-22.061-1.575-29.415 0-54.277 10.155-74.586 30.464s-30.466 45.172-30.466 74.586c0 22.41 6.128 42.546 18.384 60.404 12.257 17.859 28.539 30.641 48.849 38.344l-88.242 88.242 44.12 44.121 155.476-151.273c10.504-10.504 18.384-22.761 23.636-36.768s7.879-28.363 7.879-43.070v-399.192c0-29.414-10.155-54.275-30.464-74.586-20.311-20.309-45.172-30.464-74.586-30.464s-54.277 10.155-74.586 30.464c-20.309 20.311-30.466 45.172-30.466 74.586v210.102h-63.030v-315.152h-420.202zM252.117 532.041h252.121v210.1h-252.121v-210.1zM756.359 532.041c11.905 0 21.886 4.026 29.94 12.080s12.080 18.033 12.080 29.94c0 11.906-4.026 21.886-12.080 29.94s-18.035 12.080-29.94 12.080c-11.906 0-21.886-4.026-29.94-12.080s-12.082-18.033-12.082-29.94c0-11.906 4.028-21.886 12.082-29.94s18.033-12.080 29.94-12.080z" />
<glyph unicode="&#xe93a;" glyph-name="multicooker" d="M341.333 746.667v42.667c0 23.467 8.355 43.555 25.067 60.267s36.8 25.067 60.267 25.067h170.667c23.467 0 43.554-8.355 60.267-25.067s25.067-36.8 25.067-60.267v-42.667h128c23.467 0 43.554-8.355 60.267-25.067s25.067-36.8 25.067-60.267v-512c0-23.467-8.354-43.554-25.067-60.267s-36.8-25.067-60.267-25.067h-597.333c-23.467 0-43.555 8.354-60.267 25.067s-25.067 36.8-25.067 60.267v512c0 23.467 8.355 43.555 25.067 60.267s36.8 25.067 60.267 25.067h128zM213.333 149.333h597.333v384h-85.333v-85.333c0-23.467-8.354-43.554-25.067-60.267s-36.8-25.067-60.267-25.067h-256c-23.467 0-43.555 8.354-60.267 25.067s-25.067 36.8-25.067 60.267v85.333h-85.333v-384zM341.333 192c-12.089 0-22.222 4.087-30.4 12.267s-12.267 18.313-12.267 30.4c0 12.087 4.089 22.221 12.267 30.4s18.311 12.267 30.4 12.267c12.089 0 22.222-4.087 30.4-12.267s12.267-18.313 12.267-30.4c0-12.087-4.089-22.221-12.267-30.4s-18.311-12.267-30.4-12.267zM512 192c-12.087 0-22.221 4.087-30.4 12.267s-12.267 18.313-12.267 30.4c0 12.087 4.087 22.221 12.267 30.4s18.313 12.267 30.4 12.267c12.087 0 22.221-4.087 30.4-12.267s12.267-18.313 12.267-30.4c0-12.087-4.087-22.221-12.267-30.4s-18.313-12.267-30.4-12.267zM682.667 192c-12.087 0-22.221 4.087-30.4 12.267s-12.267 18.313-12.267 30.4c0 12.087 4.087 22.221 12.267 30.4s18.313 12.267 30.4 12.267c12.087 0 22.221-4.087 30.4-12.267s12.267-18.313 12.267-30.4c0-12.087-4.087-22.221-12.267-30.4s-18.313-12.267-30.4-12.267zM384 448h256v85.333h-256v-85.333zM213.333 618.667h597.333v42.667h-597.333v-42.667zM426.667 746.667h170.667v42.667h-170.667v-42.667z" />
<glyph unicode="&#xe93b;" glyph-name="my-location" d="M469.299-19.207v85.333c-88.887 9.957-165.155 46.756-228.799 110.401s-100.445 139.913-110.4 228.799h-85.333v85.333h85.333c9.956 88.89 46.755 165.156 110.4 228.801s139.913 100.445 228.799 110.4v85.333h85.333v-85.333c88.89-9.956 165.158-46.755 228.799-110.4 63.645-63.644 100.448-139.91 110.401-228.801h85.333v-85.333h-85.333c-9.953-88.887-46.756-165.154-110.401-228.799-63.642-63.645-139.909-100.444-228.799-110.401v-85.333h-85.333zM511.966 149.327c82.49 0 152.89 29.157 211.2 87.467 58.313 58.313 87.467 128.713 87.467 211.2 0 82.49-29.153 152.89-87.467 211.201-58.31 58.311-128.71 87.467-211.2 87.467-82.487 0-152.887-29.156-211.199-87.467-58.311-58.311-87.467-128.711-87.467-211.201 0-82.487 29.156-152.887 87.467-211.2 58.313-58.31 128.713-87.467 211.199-87.467zM511.966 277.327c-46.933 0-87.112 16.712-120.532 50.135-33.423 33.42-50.134 73.598-50.134 120.532s16.711 87.112 50.134 120.535c33.42 33.42 73.598 50.132 120.532 50.132s87.112-16.712 120.535-50.132c33.42-33.423 50.132-73.602 50.132-120.535s-16.712-87.112-50.132-120.532c-33.423-33.423-73.602-50.135-120.535-50.135zM511.966 362.66c23.467 0 43.558 8.356 60.266 25.068 16.712 16.712 25.068 36.799 25.068 60.266s-8.356 43.558-25.068 60.266c-16.708 16.712-36.799 25.068-60.266 25.068s-43.554-8.356-60.266-25.068c-16.712-16.708-25.068-36.799-25.068-60.266s8.356-43.554 25.068-60.266c16.712-16.712 36.799-25.068 60.266-25.068z" />
<glyph unicode="&#xe93c;" glyph-name="nutrition" horiz-adv-x="983" d="M491.52 79.36c-79.872 0-147.627 27.82-203.264 83.456-55.637 55.64-83.456 123.392-83.456 203.264 0 64.172 18.944 121.688 56.832 172.544 37.888 50.86 87.552 85.164 148.992 102.913-13.653 3.414-26.965 8.363-39.936 14.848s-24.576 14.848-34.816 25.088c-22.528 22.528-37.035 49.323-43.52 80.384s-8.021 62.635-4.608 94.72c32.085 3.414 63.659 1.878 94.72-4.608s57.856-20.992 80.384-43.52c15.7-15.701 27.136-33.45 34.304-53.248s11.776-40.618 13.824-62.464c8.876 21.163 19.628 41.131 32.256 59.904s26.796 36.011 42.496 51.712c7.508 7.51 17.068 11.264 28.672 11.264s21.164-3.754 28.672-11.264c7.508-7.509 11.264-17.066 11.264-28.672s-3.756-21.162-11.264-28.672c-15.020-15.018-28.332-31.573-39.936-49.664s-20.14-37.376-25.6-57.856c60.076-19.114 108.544-53.76 145.408-103.937s55.296-106.664 55.296-169.472c0-79.872-27.82-147.624-83.456-203.264-55.636-55.636-123.392-83.456-203.264-83.456zM491.52 161.28c56.66 0 104.96 19.968 144.896 59.904s59.904 88.236 59.904 144.896c0 56.664-19.968 104.96-59.904 144.896s-88.236 59.905-144.896 59.905c-56.66 0-104.96-19.968-144.896-59.905s-59.904-88.232-59.904-144.896c0-56.66 19.968-104.96 59.904-144.896s88.236-59.904 144.896-59.904z" />
<glyph unicode="&#xe93d;" glyph-name="pin" d="M511.977 447.982c23.467 0 43.555 8.356 60.267 25.068s25.068 36.8 25.068 60.267c0 23.467-8.356 43.555-25.068 60.267s-36.8 25.068-60.267 25.068c-23.467 0-43.555-8.356-60.267-25.068s-25.068-36.8-25.068-60.267c0-23.467 8.356-43.555 25.068-60.267s36.8-25.068 60.267-25.068zM511.977 134.384c86.756 79.644 151.11 152 193.065 217.065 41.958 65.068 62.935 122.845 62.935 173.334 0 77.511-24.711 140.978-74.135 190.401-49.421 49.422-110.045 74.134-181.865 74.134-71.823 0-132.444-24.711-181.868-74.134-49.421-49.422-74.132-112.89-74.132-190.401 0-50.489 20.978-108.266 62.932-173.334 41.958-65.065 106.312-137.421 193.068-217.065zM511.977 21.317c-114.489 97.423-200.002 187.91-256.534 271.465-56.533 83.555-84.8 160.891-84.8 232 0 106.669 34.311 191.645 102.933 254.934 68.621 63.289 148.089 94.933 238.4 94.933s169.776-31.644 238.399-94.933c68.623-63.289 102.932-148.266 102.932-254.934 0-71.109-28.265-148.445-84.799-232s-142.043-174.042-256.532-271.465z" />
<glyph unicode="&#xe93e;" glyph-name="publish" d="M469.366 106.67v347.735l-110.932-110.935-59.732 61.868 213.332 213.332 213.332-213.332-59.732-61.868-110.932 110.935v-347.735h-85.335zM170.7 576.005v127.999c0 23.467 8.356 43.556 25.067 60.267s36.8 25.067 60.266 25.067h512c23.468 0 43.556-8.356 60.268-25.067 16.709-16.711 25.065-36.8 25.065-60.267v-127.999h-85.332v127.999h-512v-127.999h-85.333z" />
<glyph unicode="&#xe93f;" glyph-name="search" d="M836.268 64l-268.8 268.8c-21.335-17.068-45.868-30.579-73.6-40.535-27.735-9.956-57.244-14.932-88.535-14.932-77.509 0-143.109 26.844-196.799 80.532s-80.533 119.288-80.533 196.8 26.844 143.112 80.533 196.801c53.69 53.689 119.29 80.533 196.799 80.533 77.512 0 143.112-26.844 196.8-80.533 53.691-53.689 80.535-119.289 80.535-196.801 0-31.288-4.979-60.8-14.935-88.532s-23.465-52.268-40.532-73.6l268.8-268.8-59.732-59.732zM405.332 362.665c53.335 0 98.668 18.668 136 56 37.335 37.335 56 82.668 56 136 0 53.335-18.665 98.668-56 136-37.332 37.334-82.665 56.001-136 56.001-53.332 0-98.665-18.667-136-56.001-37.332-37.332-55.999-82.665-55.999-136 0-53.332 18.667-98.665 55.999-136 37.335-37.332 82.668-56 136-56z" />
<glyph unicode="&#xe940;" glyph-name="share" d="M768 21.343c-35.556 0-65.777 12.444-90.668 37.332-24.888 24.888-37.332 55.112-37.332 90.668 0 4.977 0.356 10.132 1.068 15.465 0.709 5.335 1.777 10.135 3.2 14.4l-300.8 174.935c-12.091-10.668-25.6-19.023-40.535-25.068-14.932-6.044-30.577-9.068-46.932-9.068-35.556 0-65.778 12.444-90.667 37.335-24.889 24.888-37.333 55.109-37.333 90.665s12.444 65.779 37.333 90.668c24.889 24.888 55.111 37.332 90.667 37.332 16.356 0 32-3.021 46.932-9.065 14.935-6.047 28.444-14.4 40.535-25.068l300.8 174.933c-1.423 4.266-2.491 9.066-3.2 14.4-0.712 5.333-1.068 10.489-1.068 15.466 0 35.556 12.444 65.778 37.332 90.667 24.891 24.889 55.112 37.333 90.668 37.333s65.777-12.444 90.668-37.333c24.888-24.889 37.332-55.111 37.332-90.667s-12.444-65.779-37.332-90.667c-24.891-24.888-55.112-37.332-90.668-37.332-16.356 0-32 3.021-46.932 9.068-14.935 6.044-28.444 14.4-40.535 25.065l-300.8-174.932c1.423-4.268 2.491-9.068 3.2-14.4 0.712-5.332 1.068-10.488 1.068-15.468 0-4.977-0.356-10.132-1.068-15.465-0.709-5.335-1.777-10.135-3.2-14.4l300.8-174.935c12.091 10.668 25.6 19.023 40.535 25.068 14.932 6.044 30.577 9.068 46.932 9.068 35.556 0 65.777-12.447 90.668-37.335 24.888-24.888 37.332-55.112 37.332-90.665 0-35.556-12.444-65.779-37.332-90.668-24.891-24.888-55.112-37.332-90.668-37.332zM768 704.008c12.088 0 22.223 4.089 30.4 12.266s12.268 18.311 12.268 30.4c0 12.089-4.091 22.222-12.268 30.4s-18.312 12.267-30.4 12.267c-12.088 0-22.223-4.089-30.4-12.267s-12.268-18.311-12.268-30.4c0-12.089 4.091-22.222 12.268-30.4s18.312-12.266 30.4-12.266zM256 405.343c12.088 0 22.223 4.088 30.4 12.265 8.177 8.179 12.268 18.312 12.268 30.4s-4.091 22.223-12.268 30.4c-8.177 8.179-18.312 12.268-30.4 12.268s-22.222-4.088-30.4-12.268c-8.178-8.177-12.267-18.312-12.267-30.4s4.089-22.221 12.267-30.4c8.178-8.177 18.311-12.265 30.4-12.265zM768 106.675c12.088 0 22.223 4.088 30.4 12.268 8.177 8.177 12.268 18.309 12.268 30.4 0 12.088-4.091 22.221-12.268 30.4-8.177 8.177-18.312 12.265-30.4 12.265s-22.223-4.088-30.4-12.265c-8.177-8.179-12.268-18.312-12.268-30.4 0-12.091 4.091-22.223 12.268-30.4 8.177-8.179 18.312-12.268 30.4-12.268z" />
<glyph unicode="&#xe941;" glyph-name="star" horiz-adv-x="1046" d="M339.282 917.425c21.381 35.654 67.184 47.928 103.528 27.74l67.422-37.45c20.783-11.544 45.729-12.852 67.605-3.543l70.967 30.198c38.255 16.278 82.524-0.716 100.061-38.41l32.532-69.927c10.027-21.555 29.442-37.277 52.61-42.604l75.164-17.282c40.516-9.316 66.343-49.086 58.375-89.888l-14.783-75.695c-4.557-23.333 1.908-47.463 17.521-65.392l50.649-58.161c27.302-31.352 24.82-78.707-5.61-107.033l-56.451-52.549c-17.401-16.198-26.354-39.52-24.261-63.202l6.79-76.824c3.66-41.413-26.182-78.266-67.451-83.295l-76.558-9.332c-23.599-2.876-44.551-16.482-56.777-36.871l-39.663-66.144c-21.381-35.654-67.185-47.928-103.529-27.739l-67.421 37.45c-20.783 11.544-45.73 12.852-67.605 3.543l-70.967-30.198c-38.255-16.278-82.526 0.716-100.061 38.41l-32.532 69.927c-10.029 21.556-29.442 37.277-52.612 42.604l-75.163 17.282c-40.516 9.316-66.343 49.086-58.374 89.89l14.783 75.693c4.557 23.333-1.909 47.463-17.522 65.392l-50.65 58.161c-27.302 31.352-24.821 78.707 5.609 107.033l56.452 52.549c17.401 16.198 26.354 39.521 24.261 63.202l-6.79 76.825c-3.66 41.411 26.182 78.264 67.451 83.294l76.558 9.332c23.599 2.876 44.551 16.482 56.776 36.871l39.664 66.144z" />
<glyph unicode="&#xe942;" glyph-name="steppers" d="M213.343 320c-35.556 0-65.778 12.443-90.667 37.332s-37.333 55.112-37.333 90.668c0 35.556 12.445 65.779 37.333 90.668s55.111 37.332 90.667 37.332c35.556 0 65.778-12.443 90.668-37.332 24.886-24.889 37.332-55.112 37.332-90.668s-12.446-65.779-37.332-90.668c-24.89-24.889-55.113-37.332-90.668-37.332zM213.343 405.334c12.089 0 22.222 4.087 30.4 12.265 8.178 8.18 12.267 18.312 12.267 30.401s-4.089 22.221-12.267 30.401c-8.178 8.177-18.311 12.265-30.4 12.265s-22.222-4.087-30.4-12.265c-8.178-8.18-12.267-18.312-12.267-30.401s4.089-22.221 12.267-30.401c8.178-8.177 18.311-12.265 30.4-12.265zM512.009 320c-35.556 0-65.776 12.443-90.665 37.332s-37.335 55.112-37.335 90.668c0 35.556 12.446 65.779 37.335 90.668s55.109 37.332 90.665 37.332c35.556 0 65.779-12.443 90.668-37.332s37.332-55.112 37.332-90.668c0-35.556-12.443-65.779-37.332-90.668s-55.112-37.332-90.668-37.332zM512.009 405.334c12.089 0 22.224 4.087 30.401 12.265 8.177 8.18 12.268 18.312 12.268 30.401s-4.090 22.221-12.268 30.401c-8.177 8.177-18.312 12.265-30.401 12.265s-22.221-4.087-30.398-12.265c-8.177-8.18-12.268-18.312-12.268-30.401s4.090-22.221 12.268-30.401c8.177-8.177 18.309-12.265 30.398-12.265zM810.677 320c-35.556 0-65.779 12.443-90.668 37.332s-37.332 55.112-37.332 90.668c0 35.556 12.443 65.779 37.332 90.668s55.112 37.332 90.668 37.332c35.553 0 65.776-12.443 90.665-37.332s37.335-55.112 37.335-90.668c0-35.556-12.446-65.779-37.335-90.668s-55.112-37.332-90.665-37.332z" />
<glyph unicode="&#xe943;" glyph-name="stockpot" horiz-adv-x="983" d="M122.88 611.84h737.28v-368.64c0-34.132-11.948-63.148-35.84-87.040s-52.908-35.84-87.040-35.84h-491.52c-34.133 0-63.147 11.948-87.040 35.84s-35.84 52.908-35.84 87.040v368.64zM204.8 529.92v-286.72c0-11.604 3.925-21.332 11.776-29.184s17.579-11.776 29.184-11.776h491.52c11.604 0 21.332 3.924 29.184 11.776s11.776 17.58 11.776 29.184v286.72h-573.44zM122.88 652.8v81.92h245.76v40.96c0 11.605 3.925 21.333 11.776 29.184s17.579 11.776 29.184 11.776h163.84c11.604 0 21.332-3.925 29.184-11.776s11.776-17.579 11.776-29.184v-40.96h245.76v-81.92h-737.28z" />
<glyph unicode="&#xe944;" glyph-name="calendar-month-filled" horiz-adv-x="1008" d="M504.242 363.961c-11.906 0-21.886 4.026-29.94 12.080s-12.080 18.033-12.080 29.94c0 11.906 4.026 21.886 12.080 29.94s18.033 12.080 29.94 12.080c11.906 0 21.886-4.026 29.94-12.080s12.080-18.033 12.080-29.94c0-11.906-4.026-21.886-12.080-29.94s-18.033-12.080-29.94-12.080zM336.162 363.961c-11.906 0-21.886 4.026-29.94 12.080s-12.082 18.033-12.082 29.94c0 11.906 4.028 21.886 12.082 29.94s18.033 12.080 29.94 12.080c11.905 0 21.886-4.026 29.94-12.080s12.080-18.033 12.080-29.94c0-11.906-4.026-21.886-12.080-29.94s-18.035-12.080-29.94-12.080zM672.323 363.961c-11.905 0-21.886 4.026-29.94 12.080s-12.080 18.033-12.080 29.94c0 11.906 4.026 21.886 12.080 29.94s18.035 12.080 29.94 12.080c11.906 0 21.886-4.026 29.94-12.080s12.082-18.033 12.082-29.94c0-11.906-4.028-21.886-12.082-29.94s-18.033-12.080-29.94-12.080zM504.242 195.879c-11.906 0-21.886 4.028-29.94 12.082s-12.080 18.033-12.080 29.94c0 11.905 4.026 21.886 12.080 29.94s18.033 12.080 29.94 12.080c11.906 0 21.886-4.026 29.94-12.080s12.080-18.035 12.080-29.94c0-11.906-4.026-21.886-12.080-29.94s-18.033-12.082-29.94-12.082zM336.162 195.879c-11.906 0-21.886 4.028-29.94 12.082s-12.082 18.033-12.082 29.94c0 11.905 4.028 21.886 12.082 29.94s18.033 12.080 29.94 12.080c11.905 0 21.886-4.026 29.94-12.080s12.080-18.035 12.080-29.94c0-11.906-4.026-21.886-12.080-29.94s-18.035-12.082-29.94-12.082zM672.323 195.879c-11.905 0-21.886 4.028-29.94 12.082s-12.080 18.033-12.080 29.94c0 11.905 4.026 21.886 12.080 29.94s18.035 12.080 29.94 12.080c11.906 0 21.886-4.026 29.94-12.080s12.082-18.035 12.082-29.94c0-11.906-4.028-21.886-12.082-29.94s-18.033-12.082-29.94-12.082zM210.102 27.798c-23.111 0-42.896 8.229-59.354 24.688-16.458 16.457-24.687 36.242-24.687 59.353v588.282c0 23.111 8.229 42.896 24.687 59.355 16.458 16.457 36.243 24.686 59.354 24.686h42.020v84.040h84.041v-84.040h336.161v84.040h84.041v-84.040h42.020c23.111 0 42.896-8.229 59.355-24.686 16.457-16.458 24.686-36.243 24.686-59.355v-588.282c0-23.111-8.229-42.896-24.686-59.353s-36.243-24.688-59.355-24.688h-588.282zM210.102 111.839h588.282v420.202h-588.282v-420.202z" />
<glyph unicode="&#xe945;" glyph-name="mail-filled" horiz-adv-x="1008" d="M147.076 111.838c-16.808 0-31.515 6.302-44.121 18.908s-18.909 27.314-18.909 44.122v546.262c0 16.809 6.303 31.516 18.909 44.122s27.313 18.908 44.121 18.908h714.344c16.808 0 31.514-6.302 44.12-18.908s18.91-27.313 18.91-44.122v-546.262c0-16.808-6.304-31.516-18.91-44.122s-27.313-18.908-44.12-18.908h-714.344zM504.247 429.090l357.173 234.263v57.777l-357.173-229.010-357.171 229.010v-57.777l357.171-234.263z" />
<glyph unicode="&#xe946;" glyph-name="call-filled" horiz-adv-x="1008" d="M835.151 69.818c-81.239 0-164.054 19.61-248.444 58.829s-162.653 94.895-234.788 167.030-127.812 150.398-167.030 234.788c-39.219 84.39-58.829 167.205-58.829 248.444 0 13.307 4.552 24.512 13.657 33.617s20.309 13.657 33.617 13.657h147.070c9.806 0 18.21-3.502 25.212-10.505 7.004-7.003 11.906-15.757 14.708-26.263l28.363-132.363c1.401-9.806 1.226-18.735-0.526-26.788-1.75-8.054-5.427-14.882-11.030-20.485l-105.050-106.102c18.209-30.815 37.468-59.529 57.777-86.14 20.309-26.613 42.721-51.825 67.233-75.636 25.912-26.613 53.225-50.95 81.939-73.011 28.714-22.059 58.829-41.495 90.343-58.303l99.798 102.949c7.004 7.705 15.057 12.957 24.162 15.759 9.104 2.8 18.209 3.502 27.313 2.101l125.010-27.313c10.505-2.802 19.259-8.405 26.262-16.809 7.004-8.403 10.505-17.858 10.505-28.363v-141.818c0-13.307-4.552-24.512-13.656-33.617s-20.309-13.656-33.617-13.656z" />
<glyph unicode="&#xe947;" glyph-name="person-filled" horiz-adv-x="1008" d="M504.238 449.050c-46.223 0-84.041 14.708-113.455 44.122-29.415 29.414-44.122 67.232-44.122 113.455s14.707 84.041 44.122 113.455c29.414 29.414 67.232 44.12 113.455 44.12 46.221 0 84.039-14.707 113.455-44.12 29.414-29.414 44.12-67.232 44.12-113.455s-14.707-84.041-44.12-113.455c-29.415-29.414-67.233-44.122-113.455-44.122zM168.076 111.839v98.748c0 26.612 6.653 49.372 19.96 68.282 13.306 18.908 30.464 33.266 51.475 43.070 46.922 21.011 91.92 36.768 134.99 47.273s86.317 15.757 129.738 15.757c43.421 0 86.491-5.427 129.212-16.282s87.543-26.438 134.465-46.749c21.71-9.804 39.218-24.162 52.525-43.070 13.306-18.91 19.959-41.671 19.959-68.282v-98.748h-672.323z" />
<glyph unicode="&#xe948;" glyph-name="person" horiz-adv-x="999" d="M499.562 457.308c-45.788 0-84.985 16.304-117.593 48.912-32.608 32.606-48.91 71.805-48.91 117.593s16.302 84.987 48.91 117.593c32.608 32.607 71.805 48.91 117.593 48.91 45.79 0 84.987-16.303 117.595-48.91 32.606-32.606 48.91-71.805 48.91-117.593s-16.304-84.987-48.91-117.593c-32.608-32.608-71.805-48.912-117.595-48.912zM166.555 124.301v116.554c0 23.587 6.071 45.268 18.211 65.039 12.141 19.773 28.271 34.863 48.39 45.268 43.014 21.506 86.721 37.638 131.123 48.39 44.399 10.754 89.495 16.132 135.283 16.132 45.79 0 90.884-5.377 135.285-16.132 44.402-10.752 88.109-26.884 131.122-48.39 20.12-10.405 36.25-25.495 48.39-45.268 12.141-19.771 18.212-41.452 18.212-65.039v-116.554h-666.017zM249.806 207.552h499.512v33.302c0 7.63-1.908 14.568-5.722 20.812-3.816 6.244-8.846 11.099-15.090 14.568-37.463 18.732-75.274 32.78-113.432 42.146-38.155 9.366-76.66 14.049-115.512 14.049-38.85 0-77.354-4.683-115.512-14.049-38.155-9.366-75.966-23.415-113.429-42.146-6.244-3.469-11.274-8.324-15.090-14.568s-5.724-13.182-5.724-20.812v-33.302zM499.562 540.562c22.895 0 42.494 8.15 58.798 24.454s24.456 35.902 24.456 58.798c0 22.895-8.152 42.494-24.456 58.798-16.304 16.302-35.902 24.454-58.798 24.454-22.893 0-42.494-8.152-58.795-24.454-16.304-16.304-24.456-35.902-24.456-58.798s8.152-42.494 24.456-58.798c16.302-16.304 35.902-24.454 58.795-24.454z" />
<glyph unicode="&#xe949;" glyph-name="alltagpflege-filled" d="M295.526 98.338c-36.625 0-67.994 13.039-94.071 39.117s-39.117 57.446-39.117 94.071v179.814c0 17.203 4.028 33.178 12.083 47.855 8.055 14.711 19.285 26.795 33.724 36.215l274.739 178.176 16.657-16.657c11.093-11.093 17.613-24.269 19.558-39.561 1.946-15.258-1.263-29.559-9.557-42.871l-37.478-59.938h256.41c9.421 0 17.34-3.174 23.723-9.557s9.557-14.302 9.557-23.723-3.174-17.34-9.557-23.723c-6.383-6.383-14.302-9.557-23.723-9.557h-233.097v-49.937h299.725c9.421 0 17.34-3.174 23.723-9.557s9.557-14.302 9.557-23.723-3.174-17.34-9.557-23.723c-6.383-6.383-14.302-9.557-23.723-9.557h-299.725v-49.937h266.411c9.421 0 17.34-3.174 23.723-9.557s9.557-14.302 9.557-23.723-3.174-17.34-9.557-23.723c-6.383-6.383-14.302-9.557-23.723-9.557h-266.411v-49.937h199.817c9.421 0 17.34-3.174 23.723-9.557s9.557-14.302 9.557-23.723-3.174-17.34-9.557-23.723c-6.383-6.383-14.302-9.557-23.723-9.557h-399.633zM620.237 564.565c-16.111 0-29.833 5.7-41.199 17.067s-17.067 25.122-17.067 41.199 5.7 29.833 17.067 41.199c11.366 11.366 25.122 17.067 41.199 17.067s29.833-5.7 41.199-17.067c11.366-11.366 17.067-25.122 17.067-41.199s-5.7-29.833-17.067-41.199c-11.366-11.366-25.122-17.067-41.199-17.067zM678.502 697.754c-13.892 0-25.668 4.847-35.396 14.575s-14.575 21.504-14.575 35.396 4.847 25.668 14.575 35.396c9.728 9.728 21.504 14.575 35.396 14.575s25.668-4.847 35.396-14.575 14.575-21.504 14.575-35.396-4.847-25.668-14.575-35.396-21.504-14.575-35.396-14.575zM795.068 564.565c-18.33 0-33.997 6.519-47.036 19.558s-19.558 28.706-19.558 47.036 6.519 33.997 19.558 47.036c13.039 13.039 28.706 19.558 47.036 19.558s33.997-6.519 47.036-19.558c13.039-13.039 19.558-28.706 19.558-47.036s-6.519-33.997-19.558-47.036c-13.039-13.039-28.706-19.558-47.036-19.558z" />
<glyph unicode="&#xe94a;" glyph-name="ausfluge-reisen-filled" d="M283.887 464.452s0.068-0.034 0.102-0.068c-0.034 0-0.068 0.034-0.102 0.068zM492.1 688.947c0.034-3.891 1.126-8.090 2.867-11.571 3.755-7.578 12.22-11.264 20.378-9.762 7.68 1.434 13.346 6.212 15.462 13.517-3.072-7.748-9.694-12.493-18.091-12.561-11.605-0.068-19.934 8.909-20.241 22.357-0.273 12.186-0.068 24.371-0.068 36.591 0 12.015 0 24.064 0 36.079-0.341-1.024-0.512-2.253-0.512-3.789 0.205-23.62-0.034-47.241 0.239-70.861zM279.45 466.5c0.649-0.239 1.263-0.478 1.877-0.751-0.614 0.273-1.229 0.512-1.877 0.751zM236.032 427.964v0c11.81 0 23.654-0.273 35.43 0.102 12.8 0.41 21.367 8.841 21.265 20.105 0 1.536-0.239 3.004-0.546 4.437 0.239-1.399 0.375-2.901 0.341-4.506-0.273-12.937-9.865-19.831-27.511-19.866-22.63 0-45.295 0-68.608 0 0.922-0.273 1.98-0.375 3.277-0.341 12.117 0.205 24.235 0.068 36.386 0.068zM732.058 443.085c2.287-8.738 9.045-14.507 19.115-14.882 12.425-0.478 24.883-0.102 37.308-0.102v-0.102c11.81 0 23.62 0.171 35.43-0.068 1.434 0 2.594 0.102 3.55 0.375h-6.178c-21.572 0-43.145-0.102-64.717 0.034-14.746 0.102-24.235 8.397-23.962 20.548 0.171 7.134 3.55 12.732 9.284 16.145-0.887-0.444-1.775-0.922-2.594-1.399-6.827-4.301-9.318-12.698-7.27-20.514zM506.163 227.84c-8.158-2.492-13.653-9.216-13.995-18.876-0.444-12.425-0.102-24.849-0.102-37.308 0 0-0.068 0-0.102 0 0-11.81 0.171-23.62-0.068-35.43-0.034-1.604 0.137-2.867 0.512-3.925 0 2.628 0 5.257 0 7.885 0 22.187-0.239 44.407 0.137 66.594 0.205 12.902 8.67 21.538 20.002 21.641 4.164 0 7.953-1.161 11.093-3.277-4.779 3.618-11.298 4.574-17.408 2.697zM281.327 465.749c0.887-0.41 1.775-0.819 2.56-1.331-0.785 0.478-1.673 0.922-2.56 1.331zM292.181 452.608c-0.922 5.086-3.686 9.045-8.158 11.742 4.198-2.731 7.031-6.861 8.158-11.742zM512 806.502c-197.973 0-358.673-160.631-358.673-358.502 0-197.803 160.768-358.502 358.673-358.502 197.939 0 358.673 160.666 358.673 358.537 0 197.905-160.7 358.502-358.673 358.502zM492.373 763.597c0.819 2.389 2.731 3.379 6.451 3.243 8.704-0.307 17.408-0.41 26.112 0 6.076 0.307 7.305-2.458 7.168-7.782-0.273-11.81-0.068-23.62-0.068-35.43h-0.171c0-12.425 0.478-24.883-0.137-37.274-0.102-1.877-0.444-3.618-0.922-5.257v0c-2.116-7.339-7.782-12.083-15.462-13.517-8.158-1.502-16.623 2.185-20.378 9.762-1.741 3.482-2.833 7.68-2.867 11.571-0.273 23.62 0 47.241-0.239 70.861 0 1.536 0.137 2.799 0.512 3.789zM271.497 428.1c-11.81-0.375-23.62-0.068-35.43-0.068v0c-12.117 0-24.269 0.102-36.386-0.102-1.297 0-2.389 0.102-3.277 0.341-2.389 0.683-3.447 2.423-3.345 6.042 0.273 9.011 0.205 18.022 0 27.034-0.102 4.574 1.195 6.793 6.281 6.758 24.235-0.205 48.503 0.171 72.738-0.239 2.697-0.034 5.12-0.546 7.407-1.331 0.649-0.239 1.263-0.478 1.877-0.751 0.922-0.41 1.775-0.853 2.56-1.331 0.034 0 0.068-0.034 0.102-0.068 4.471-2.731 7.236-6.69 8.158-11.742 0.341-1.434 0.546-2.901 0.546-4.437 0.102-11.264-8.465-19.695-21.265-20.105zM524.937 129.161c-8.704 0.273-17.408 0.307-26.112 0-3.686-0.137-5.632 0.853-6.451 3.174-0.375 1.024-0.546 2.321-0.512 3.925 0.273 11.81 0.068 23.62 0.068 35.43 0 0 0.068 0 0.102 0 0 12.425-0.341 24.883 0.102 37.308 0.341 9.626 5.837 16.384 13.995 18.876 6.11 1.877 12.629 0.922 17.408-2.697 1.57-1.195 2.935-2.628 4.028-4.369 2.389-3.755 4.13-8.602 4.198-13.005 0.41-23.927 0.102-47.855 0.307-71.782 0.068-5.461-2.116-6.963-7.202-6.827zM712.26 620.373c-31.607-85.026-63.625-169.882-94.447-255.215-5.086-14.029-12.39-21.402-26.249-26.419-83.524-30.345-166.707-61.645-250.061-92.501-4.301-1.604-9.045-3.174-13.483-2.901-13.483 0.853-20.958 13.79-15.974 27.443 11.059 30.345 22.426 60.587 33.724 90.863 21.026 56.491 42.189 112.913 63.010 169.472 3.413 9.25 8.909 14.746 18.227 18.193 85.709 31.642 171.281 63.59 256.887 95.505 6.861 2.56 13.551 4.745 20.685 1.297 6.349-3.072 10.206-7.885 11.059-15.701-1.024-3.038-2.082-6.588-3.379-10.069zM827.494 428.271v0c-0.956-0.273-2.15-0.41-3.55-0.375-11.81 0.273-23.62 0.068-35.43 0.068v0.102c-12.425 0-24.883-0.375-37.308 0.102-10.069 0.375-16.828 6.144-19.115 14.882-2.048 7.817 0.444 16.213 7.27 20.514 0.819 0.512 1.673 0.956 2.594 1.399 0 0 0 0 0 0 3.243 1.604 6.963 2.731 10.411 2.799 23.927 0.41 47.889 0.102 71.817 0.307 5.427 0.034 6.997-2.082 6.827-7.168-0.273-8.704-0.307-17.408 0-26.112 0.137-3.857-0.922-5.837-3.482-6.588zM363.588 301.534c0.614-0.649 1.195-1.297 1.809-1.946 64.614 23.825 129.195 47.616 193.263 71.236-41.711 41.643-82.534 82.398-123.87 123.699-23.586-64-47.377-128.478-71.168-192.99zM465.613 525.21c41.233-41.233 81.988-82.022 123.631-123.733 23.654 64.239 47.445 128.785 71.236 193.365-0.649 0.478-1.297 0.956-1.98 1.434-64.478-23.757-128.99-47.514-192.922-71.066z" />
<glyph unicode="&#xe94b;" glyph-name="auto-camping-filled" d="M870.571 726.289c0 8.090-0.785 15.155-2.389 21.641-8.738 35.567-39.049 58.539-77.141 58.539-144.657 0-289.314 0-433.971 0h-123.972c-1.707 0-3.413 0-5.12-0.068-40.311-1.263-73.626-34.714-74.274-74.547-0.478-28.706-0.478-58.675 0-91.648 0.478-33.417 24.269-63.488 56.559-71.475 6.861-1.707 13.722-2.423 20.412-2.97l-1.57-6.246c-8.567-34.304-17.374-69.734-26.317-104.55-29.73-11.913-49.015-39.629-49.186-70.827-0.205-39.663-0.205-81.579 0-131.959 0.068-19.558 6.895-36.727 19.695-49.698 5.905-5.973 12.663-10.889 19.183-15.633 1.365-0.99 2.731-1.98 4.096-3.004 2.799-57.003 48.401-90.863 91.511-94.003 2.662-0.205 5.291-0.273 7.885-0.273 21.129 0 40.448 6.315 57.515 18.842 22.801 16.725 36.284 39.492 40.209 67.721h115.678c37.581 0 91.75 0 122.266 0l-0.137-2.116 0.239-1.399c8.909-51.063 53.521-86.596 103.868-82.807 50.859 3.891 88.883 43.315 91.477 94.549 28.433 14.438 43.452 39.049 43.486 71.373 0.068 156.126 0.068 314.436-0.068 470.562zM300.407 565.248h25.941v-104.687h-52.087l26.18 104.687zM317.406 166.332c-5.871-5.803-13.653-8.977-21.879-8.977-0.102 0-0.239 0-0.341 0v0c-16.93 0.171-30.652 14.165-30.549 31.198 0.068 8.294 3.345 16.043 9.25 21.845 5.871 5.803 13.653 8.977 21.914 8.977 0.102 0 0.205 0 0.307 0 16.93-0.171 30.618-14.165 30.515-31.198-0.034-8.26-3.311-16.009-9.25-21.845zM492.817 460.288c-8.431 0-11.708 3.277-11.742 11.639-0.034 27.477-0.068 54.955 0 82.398 0 7.953 3.345 11.196 11.469 11.196 14.677 0 29.355 0 43.998 0 10.445 0 20.924 0 31.369 0h31.437s29.935 0 29.935 0c24.951 0 49.903 0 74.854 0 8.909 0 12.083-3.14 12.083-11.981 0.034-27.238 0.068-54.477 0-81.749 0-8.431-3.209-11.571-11.844-11.571-70.519-0.034-141.073-0.034-211.627 0zM750.285 166.366c-5.871-5.803-13.653-8.977-21.879-8.977h-0.205c-16.862 0.102-30.652 13.995-30.686 30.925 0 8.26 3.209 16.077 9.114 21.982 5.871 5.871 13.619 9.114 21.879 9.114h0.068c8.294 0 16.111-3.277 21.982-9.216 5.837-5.905 9.045-13.687 9.011-21.948s-3.345-16.043-9.25-21.879z" />
<glyph unicode="&#xe94c;" glyph-name="autozubehor-filled" d="M870.673 447.829c-0.102-197.871-160.768-358.434-358.673-358.434-198.178 0-358.912 160.973-358.673 359.151 0.239 197.871 161.041 358.229 359.049 358.059 197.905-0.171 358.4-160.87 358.332-358.775zM600.747 677.786c-0.649 11.435-7.919 20.685-19.934 23.927-45.807 12.356-91.682 12.425-137.489 0-17.237-4.676-24.201-20.548-15.497-36.011 12.151-21.504 24.713-42.803 36.898-64.273 1.98-3.516 3.994-4.267 7.817-3.243 26.249 7.066 52.531 7.066 78.78-0.034 4.198-1.126 6.212 0.137 8.226 3.755 11.981 21.094 24.269 41.984 36.215 63.044 2.253 3.959 3.379 8.567 5.018 12.868zM511.693 184.934c23.142 0.444 46.046 2.867 68.437 9.148 18.125 5.086 24.883 20.821 15.701 37.001-11.981 21.060-24.303 41.95-36.25 63.010-2.048 3.584-3.994 4.847-8.226 3.721-26.214-6.997-52.531-7.031-78.78 0.068-3.755 1.024-5.837 0.239-7.817-3.277-12.186-21.504-24.747-42.769-36.898-64.273-8.738-15.462-1.741-31.266 15.428-36.079 22.391-6.281 45.261-8.841 68.403-9.318zM619.042 561.698c0.478-1.024 0.58-1.536 0.887-1.843 20.48-20.241 34.816-44.1 42.496-71.987 0.478-1.741 3.925-3.721 6.007-3.755 24.951-0.239 49.903-0.375 74.854-0.068 16.828 0.205 27.204 14.268 23.177 30.618-1.058 4.301-2.355 8.533-3.721 12.732-13.175 41.165-35.089 77.005-65.809 107.383-11.23 11.093-28.57 10.411-36.454-2.355-14.438-23.347-27.785-47.377-41.438-70.793zM404.992 560.674c-0.58 1.331-0.922 2.458-1.468 3.447-12.561 21.811-25.020 43.657-37.786 65.331-9.182 15.565-26.59 17.51-39.492 4.608-33.314-33.382-56.218-72.841-68.403-118.443-4.608-17.271 5.632-31.334 23.313-31.539 24.713-0.273 49.459 0 74.172-0.171 3.891 0 5.871 1.024 6.827 5.052 1.229 5.188 3.004 10.274 4.949 15.258 8.363 21.641 21.163 40.346 37.888 56.457zM404.958 334.234c-0.478 1.058-0.58 1.57-0.887 1.877-20.514 20.241-34.85 44.066-42.496 71.953-0.478 1.741-3.925 3.755-6.007 3.755-24.951 0.239-49.903 0.375-74.854 0.068-16.862-0.205-27.238-14.234-23.177-30.583 1.058-4.301 2.389-8.533 3.721-12.732 13.073-40.96 34.884-76.595 65.297-106.94 11.571-11.537 28.877-11.162 36.966 1.877 14.473 23.313 27.819 47.343 41.472 70.724zM619.657 333.21c12.971-22.323 26.351-46.319 40.789-69.666 7.885-12.766 25.259-13.517 36.454-2.389 34.031 33.724 57.207 73.83 69.495 120.149 4.335 16.316-6.281 30.413-23.108 30.618-24.951 0.307-49.903 0-74.854 0.205-4.096 0-5.359-1.638-6.69-5.222-4.301-11.537-7.987-23.518-14.165-34.031-7.953-13.551-18.057-25.805-27.955-39.595zM546.236 447.351c0.41 18.91-14.575 34.475-33.587 34.884-18.876 0.41-34.475-14.609-34.884-33.587-0.41-18.91 14.575-34.475 33.587-34.884 18.91-0.41 34.475 14.575 34.884 33.587zM475.955 507.802c0 13.346-10.923 24.201-24.098 23.927-12.834-0.273-23.586-11.162-23.552-23.962 0-12.971 10.547-23.586 23.586-23.723 13.517-0.171 24.098 10.274 24.064 23.757zM571.494 484.045c13.346-0.137 24.269 10.581 24.201 23.791-0.034 12.8-10.82 23.654-23.654 23.859-12.902 0.205-23.723-10.308-24.030-23.313-0.307-13.551 9.967-24.235 23.45-24.371zM452.369 411.955c-13.38 0.068-24.235-10.752-24.098-23.927 0.137-12.8 10.957-23.62 23.791-23.723 13.175-0.137 23.962 10.752 23.893 24.132-0.068 13.175-10.411 23.484-23.586 23.552zM548.045 388.164c0-13.073 10.479-23.689 23.45-23.893 13.005-0.171 24.269 10.991 24.201 23.996-0.068 13.244-10.957 23.859-24.337 23.689-13.175-0.205-23.347-10.581-23.313-23.825z" />
<glyph unicode="&#xe94d;" glyph-name="brot-backwaren-filled" d="M519.782 737.041c-256.375 0-471.996-128.922-471.996-338.842 0-256.375 196.437-238.967 452.813-238.967s475.614-17.408 475.614 238.967c0 196.198-200.055 338.842-456.431 338.842zM387.004 621.227c-27.887-32.256-63.386-84.241-74.206-148.617-2.833-16.657-17.271-28.467-33.621-28.467-1.877 0-3.789 0.137-5.734 0.478-18.569 3.14-31.095 20.753-27.955 39.322 13.449 79.94 56.286 143.053 89.839 181.897 12.322 14.268 33.86 15.872 48.128 3.55s15.872-33.894 3.55-48.162zM570.095 623.377c-36.966-43.076-83.081-114.79-93.013-211.729-1.809-17.579-16.623-30.652-33.929-30.652-1.161 0-2.321 0.068-3.516 0.171-18.739 1.946-32.393 18.705-30.481 37.444 11.742 114.517 65.809 198.724 109.124 249.207 12.254 14.302 33.826 15.974 48.128 3.686 14.302-12.254 15.94-33.826 3.686-48.128zM719.974 590.609c-20.855-23.211-49.186-65.911-65.536-137.557-3.618-15.804-17.681-26.556-33.246-26.556-2.526 0-5.052 0.307-7.612 0.887-18.398 4.198-29.901 22.494-25.702 40.858 15.735 68.983 43.11 125.508 81.374 168.004 12.595 14.029 34.167 15.155 48.196 2.56 13.995-12.595 15.155-34.202 2.526-48.196z" />
<glyph unicode="&#xe94e;" glyph-name="fertiggerichte-togo-filled" d="M936.482 507.767h-49.732l-111.241 238.421c-6.246 13.38-19.695 21.948-34.441 21.948h-458.103c-14.78 0-28.194-8.567-34.441-21.948l-111.241-238.421h-49.732c-17.51 0-31.71-14.199-31.71-31.71v-59.597c0-17.51 14.199-31.71 31.71-31.71h51.371l109.602-234.871c6.246-13.38 19.695-21.948 34.441-21.948h458.103c14.78 0 28.194 8.567 34.441 21.948l109.602 234.871h51.405c17.51 0 31.71 14.199 31.71 31.71v59.597c0 17.51-14.199 31.71-31.71 31.71zM654.575 268.527h-285.184c-20.992 0-38.025 17.033-38.025 38.025s17.033 38.025 38.025 38.025h285.184c20.992 0 38.025-17.033 38.025-38.025s-17.033-38.025-38.025-38.025z" />
<glyph unicode="&#xe94f;" glyph-name="fleisch-fisch-filled" d="M876.681 228.181c20.821 21.845 41.984 47.002 63.351 75.81 10.957 14.78 7.851 35.601-6.895 46.558s-35.601 7.851-46.558-6.895c-20.002-26.965-40.073-50.893-60.143-71.782-62.191 47.411-127.181 72.806-194.287 75.708-58.3 2.526-117.282-12.834-170.598-44.442-39.322-23.313-62.805-47.923-65.331-50.654-12.425-13.346-11.776-34.167 1.365-46.729 0.034-0.034 0-0.034 0.102-0.102v0s-0.068 0.068-0.102 0.102c0 0 0.068-0.068 0.102-0.102v0s0 0 0 0c5.53-6.451 97.86-111.787 233.95-107.042 58.539 2.048 125.167 24.508 196.471 83.934 19.149-18.569 38.639-40.209 58.402-65.468 11.332-14.473 32.256-17.033 46.729-5.7s17.033 32.256 5.7 46.729c-20.378 26.044-41.131 49.391-62.259 70.11zM470.391 227.533c-0.307 0.273-0.683 0.58-0.99 0.853 0.307 0.239 0.649 0.478 0.99 0.717v-1.57zM625.015 743.219c-153.054 119.74-351.949 19.866-407.757-90.078-55.842-109.978 24.644-178.176-72.294-290.406-76.834-95.71-162.987-330.377 203.878-245.316 0 0 58.539 15.735 38.434 47.889-9.318 14.916-26.419 28.945-35.669 44.305-10.957 18.193-14.541 39.356 2.662 56.764 146.227 147.934 265.899 121.856 335.94 112.060 27.682-3.857 30.959 24.508 30.959 24.508 25.293 94.822 56.9 220.57-96.154 340.309zM518.451 436.975c-44.783 0-81.067 36.318-81.067 81.067s36.318 81.067 81.067 81.067 81.067-36.318 81.067-81.067-36.318-81.067-81.067-81.067z" />
<glyph unicode="&#xe950;" glyph-name="fruchte-gemuse-filled" d="M854.733 755.098c-19.934 25.361-48.538 41.438-80.589 45.261-23.791 2.867-47.377-1.297-68.335-11.81-24.201 11.537-51.405 14.643-77.995 8.704-22.972-5.12-43.452-16.555-59.597-32.905-14.814 2.253-30.003 1.741-44.851-1.604-31.471-7.1-58.266-26.044-75.503-53.316-11.401-18.091-17.715-38.366-18.569-59.187-42.428-19.422-71.373-62.737-70.929-111.036 0.171-18.091 4.301-35.533 11.913-51.371h-115.678c-4.574 12.22-6.929 24.986-6.929 38.229-0.171 30.447 12.493 59.87 34.714 80.691 20.924 19.627 48.265 30.276 76.937 29.73 0.205 0 0.375 0 0.58 0 18.603 0 33.826 14.916 34.133 33.587 0.307 18.842-14.746 34.372-33.587 34.679-46.558 0.58-90.795-16.35-124.723-48.196-36.011-33.792-56.525-81.476-56.252-130.662 0-12.8 1.434-25.566 4.198-38.059h-6.144c-18.842 0-34.133-15.292-34.133-34.133 0-123.631 62.805-232.858 158.208-297.438-8.363-6.212-13.824-16.145-13.824-27.409 0-18.842 15.292-34.133 34.133-34.133h180.429s0 0 0 0 0 0 0 0h180.429c18.842 0 34.133 15.292 34.133 34.133 0 11.23-5.461 21.163-13.824 27.409 95.403 64.58 158.208 173.807 158.208 297.438 0 14.404-8.909 26.658-21.504 31.71 20.924 18.91 34.475 44.305 38.468 72.602 3.345 23.757-0.307 47.377-10.377 68.54 20.617 41.165 16.247 91.17-13.141 128.546zM706.935 573.952l-86.084-86.084h-96.529l134.383 134.383c13.346 13.312 34.953 13.312 48.265 0s13.312-34.953 0-48.265z" />
<glyph unicode="&#xe951;" glyph-name="getranke-filled" d="M488.38 436.463l42.735-325.086c3.584-27.273 27.034-47.855 54.545-47.855h168.414c27.511 0 50.961 20.582 54.545 47.855l42.735 325.086h-363.008zM773.564 368.196l-4.437-33.826h-198.451l-4.437 33.826h207.36zM509.508 112.196l-29.013 201.694h-0.102c-1.911 17.033-16.35 30.242-33.894 30.242h-178.415v154.965h240.026c3.345-15.36 16.998-26.829 33.348-26.829 18.842 0 34.133 15.292 34.133 34.133v79.189c0 21.982-6.861 42.974-19.866 60.655l-83.866 114.278c0.683 2.492 1.092 5.12 1.092 7.851v46.558c0 16.521-13.38 29.901-29.901 29.901h-116.736c-16.521 0-29.901-13.38-29.901-29.901v-46.558c0-3.209 0.512-6.281 1.468-9.182l-81.374-124.894c-10.889-16.691-16.623-36.045-16.623-55.979v-422.639c0-23.723 8.192-46.933 23.074-65.434 21.879-27.204 61.884-31.573 89.19-9.762l13.926 11.127 16.486-13.585c11.742-9.66 26.078-14.507 40.414-14.507s28.945 4.915 40.721 14.746l15.428 12.902 15.838-11.913c15.087-11.332 36.454-8.294 47.787 6.758 5.871 7.782 7.851 17.271 6.349 26.18h0.41z" />
<glyph unicode="&#xe952;" glyph-name="haushalt-filled" d="M305.971 104.653c-18.876 0-35.055 6.724-48.503 20.173s-20.173 29.628-20.173 48.503v549.342c0 18.876 6.724 35.055 20.173 48.503s29.628 20.173 48.503 20.173h412.023c18.876 0 35.055-6.724 48.503-20.173s20.173-29.628 20.173-48.503v-549.376c0-18.876-6.724-35.055-20.173-48.503s-29.628-20.173-48.503-20.173h-412.023zM512 207.633c47.514 0 87.996 16.725 121.446 50.21 33.485 33.485 50.21 73.967 50.21 121.446s-16.725 87.996-50.21 121.446c-33.485 33.485-73.967 50.21-121.446 50.21s-87.996-16.725-121.446-50.21c-33.485-33.485-50.21-73.967-50.21-121.446s16.725-87.996 50.21-121.446c33.485-33.485 73.967-50.21 121.446-50.21zM512 266.035c-14.882 0-29.321 2.731-43.349 8.158s-26.453 13.585-37.342 24.474l161.382 161.382c10.889-10.889 19.012-23.313 24.474-37.342 5.427-14.029 8.158-28.467 8.158-43.349 0-31.471-11.025-58.231-33.041-80.247s-48.777-33.041-80.247-33.041zM374.647 619.691c9.728 0 17.886 3.277 24.474 9.865s9.865 14.746 9.865 24.474-3.277 17.886-9.865 24.474c-6.588 6.588-14.746 9.865-24.474 9.865s-17.886-3.277-24.474-9.865-9.865-14.746-9.865-24.474 3.277-17.886 9.865-24.474 14.746-9.865 24.474-9.865zM477.662 619.691c9.728 0 17.886 3.277 24.474 9.865s9.865 14.746 9.865 24.474-3.277 17.886-9.865 24.474-14.746 9.865-24.474 9.865-17.886-3.277-24.474-9.865c-6.588-6.588-9.865-14.746-9.865-24.474s3.277-17.886 9.865-24.474c6.588-6.588 14.746-9.865 24.474-9.865z" />
<glyph unicode="&#xe953;" glyph-name="milchprodukte-eier-filled" d="M848.247 230.161c0-112.674-71.202-159.676-158.993-159.676s-158.993 47.002-158.993 159.676 71.202 248.388 158.993 248.388 158.993-135.714 158.993-248.388zM581.086 516.267c0 0.205 0 0.375 0 0.58-1.911 57.003-22.665 79.36-39.356 97.314-8.124 8.738-15.121 16.282-21.026 29.184-8.26 18.022-8.294 24.098-8.363 35.123 0 2.116 0 4.403-0.102 6.827 30.788 5.632 54.238 32.597 54.238 65.024v6.827c0 36.454-29.662 66.15-66.15 66.15h-228.318c-36.454 0-66.15-29.662-66.15-66.15v-6.827c0-33.86 25.6-61.85 58.47-65.673-0.375-5.325-0.41-9.933-0.444-14.029-0.068-11.025-0.102-17.135-8.363-35.123-5.905-12.902-12.937-20.446-21.026-29.15-15.462-16.657-34.441-37.103-38.639-85.402-0.478-2.287-0.751-4.642-0.751-7.066v-342.494c-0.307-1.809-0.478-3.652-0.478-5.53 0-18.842 15.292-34.133 34.133-34.133h202.854c18.842 0 34.133 15.292 34.133 34.133s-15.292 34.133-34.133 34.133h-168.243v232.789c13.175-4.915 28.877-8.158 47.548-8.158 6.963 0 14.302 0.444 22.084 1.434 39.39 4.915 60.143 18.5 76.834 29.423 12.766 8.363 22.835 14.95 43.042 19.012 24.098 4.847 48.094-5.393 59.904-11.674v-16.759c0-18.842 15.292-34.133 34.133-34.133s34.133 15.292 34.133 34.133v69.769c0 0.171 0 0.375 0 0.546z" />
</font>
</defs>
</svg>
